磁力链接吧

 找回密码
 立即注册
搜索

深夜秀/夜深时 Late.Night.2019.720p.BluRay.X264-AMIABLE 5.47GB

[复制链接]
百度云资源 发表于 2020-1-17 20:25:20 | 显示全部楼层 |阅读模式
帖子完整标题:深夜秀/夜深时 Late.Night.2019.720p.BluRay.X264-AMIABLE 5.47GB




◎译  名 深夜秀 / 夜深时
◎片  名 Late Night
◎年  代 2019
◎产  地 美国
◎类  别 剧情 / 喜剧
◎语  言 英语
◎上映日期 2019-01-25(圣丹斯电影节) / 2019-06-07(美国)
◎IMDb评分  6.5/10 from 16860 users
◎bt电影天堂 www.btddy.com
◎片  长 102分钟(圣丹斯电影节)
◎导  演 尼萨·加纳特 Nisha Ganatra
◎编  剧 敏迪·卡灵 Mindy Kaling
◎主  演 艾玛·汤普森 Emma Thompson
       敏迪·卡灵 Mindy Kaling
       约翰·利思戈 John Lithgow
       休·丹西 Hugh Dancy
       伊克·巴里霍尔兹 Ike Barinholtz
       梅歌林·艾奇坤沃克 Megalyn Echikunwoke
       艾米·莱安 Amy Ryan
       马克斯·凯塞拉 Max Casella
       保罗·沃尔特·豪泽 Paul Walter Hauser
       瑞德·斯科特 Reid Scott
       丹尼斯·欧哈拉 Denis O'Hare
       费斯·洛根 Faith Logan
       约翰·厄尔利 John Early
       桃乐丝·麦卡锡 Doris McCarthy
       卢克·斯拉特里 Luke Slattery
       格里高利·迈克尔 Gregory Mikell
       Rupak Ginn


◎标  签 喜剧 | 美国 | 女性 | 2019 | 脱口秀 | EmmaThompson | 艾玛·汤普森 | 电影

◎简  介  

  艾玛·汤普森、敏迪·卡灵将参演30WEST、FilmNation打造的喜剧[夜深时](Late Night,暂译)。敏迪·卡灵还操刀剧本,尼萨·加纳特(《高玩救未来》)执导。讲述一个即将失去工作的深夜脱口秀主持人(汤普森饰),当她雇用女性作家(卡灵饰)时,她的工作和生活似乎有了转机。该片将于四月展开拍摄。

◎获奖情况  

  第77届金球奖(2020)
  电影类 音乐/喜剧片最佳女主角(提名) 艾玛·汤普森
Video
ID                                       : 1
Format                                   : AVC
Format/Info                              : Advanced Video Codec
Format settings                          : CABAC / 9 Ref Frames
Format settings, CABAC                   : Yes
Format settings, Reference frames        : 9 frames
Codec ID                                 : V_MPEG4/ISO/AVC
Duration                                 : 1 h 41 min
Bit rate                                 : 6 182 kb/s
Width                                    : 1 280 pixels
Height                                   : 696 pixels
Display aspect ratio                     : 1.85:1
Frame rate mode                          : Constant
Frame rate                               : 23.976 (24000/1001) FPS
Color space                              : YUV
Chroma subsampling                       : 4:2:0
Bit depth                                : 8 bits
Scan type                                : Progressive
Bits/(Pixel*Frame)                       : 0.289
Stream size                              : 4.28 GiB (78%)
Writing library                          : x264 core 159 r2991 1771b55
Encoding settings                        : cabac=1 / ref=9 / deblock=1:-3:-3 / analyse=0x3:0x133 / me=umh / subme=10 / psy=1 / psy_rd=1.00:0.00 / mixed_ref=1 / me_range=24 / chroma_me=1 / trellis=2 / 8x8dct=1 / cqm=0 / deadzone=21,11 / fast_pskip=0 / chroma_qp_offset=-2 / threads=22 / lookahead_threads=5 / sliced_threads=0 / nr=0 / decimate=0 / interlaced=0 / bluray_compat=0 / constrained_intra=0 / bframes=10 / b_pyramid=2 / b_adapt=2 / b_bias=0 / direct=3 / weightb=1 / open_gop=0 / weightp=2 / keyint=240 / keyint_min=24 / scenecut=40 / intra_refresh=0 / rc_lookahead=60 / rc=2pass / mbtree=1 / bitrate=6182 / ratetol=1.0 / qcomp=0.60 / qpmin=0 / qpmax=69 / qpstep=4 / cplxblur=20.0 / qblur=0.5 / ip_ratio=1.30 / aq=3:0.80
Default                                  : Yes
Forced                                   : No
Statistics Tags Issue                    : no_variable_data 1970-01-01 00:00:00 / no_variable_data 2010-02-22 21:41:29
FromStats_BitRate                        : 6181072
FromStats_Duration                       : 01:41:41.429000000
FromStats_FrameCount                     : 146288
FromStats_StreamSize                     : 4714172093

Audio
ID                                       : 2
Format                                   : DTS
Format/Info                              : Digital Theater Systems
Codec ID                                 : A_DTS
Duration                                 : 1 h 41 min
Bit rate mode                            : Constant
Bit rate                                 : 1 509 kb/s
Channel(s)                               : 6 channels
Channel layout                           : C L R Ls Rs LFE
Sampling rate                            : 48.0 kHz
Frame rate                               : 93.750 FPS (512 SPF)
Bit depth                                : 24 bits
Compression mode                         : Lossy
Stream size                              : 1.07 GiB (20%)
Language                                 : English
Default                                  : Yes
Forced                                   : No
Statistics Tags Issue                    : no_variable_data 1970-01-01 00:00:00 / no_variable_data 2010-02-22 21:41:29
FromStats_BitRate                        : 1508999
FromStats_Duration                       : 01:41:41.430000000
FromStats_FrameCount                     : 572009
FromStats_StreamSize                     : 1150882108

Text #1
ID                                       : 3
Format                                   : UTF-8
Codec ID                                 : S_TEXT/UTF8
Codec ID/Info                            : UTF-8 Plain Text
Language                                 : English
Default                                  : No
Forced                                   : No
Statistics Tags Issue                    : no_variable_data 1970-01-01 00:00:00 / no_variable_data 2010-02-22 21:41:29
FromStats_BitRate                        : 106
FromStats_Duration                       : 01:39:41.475000000
FromStats_FrameCount                     : 2142
FromStats_StreamSize                     : 79785

Text #2
ID                                       : 4
Format                                   : UTF-8
Codec ID                                 : S_TEXT/UTF8
Codec ID/Info                            : UTF-8 Plain Text
Title                                    : SDH
Language                                 : English
Default                                  : No
Forced                                   : No
Statistics Tags Issue                    : no_variable_data 1970-01-01 00:00:00 / no_variable_data 2010-02-22 21:41:29
FromStats_BitRate                        : 113
FromStats_Duration                       : 01:39:44.603000000
FromStats_FrameCount                     : 2286
FromStats_StreamSize                     : 85081

Menu
00:00:00.000                             : en:Chapter 01
00:09:51.716                             : en:Chapter 02
00:16:43.961                             : en:Chapter 03
00:24:45.693                             : en:Chapter 04
00:33:04.649                             : en:Chapter 05
00:40:45.568                             : en:Chapter 06
00:51:39.513                             : en:Chapter 07
01:02:18.944                             : en:Chapter 08
01:10:30.226                             : en:Chapter 09
01:19:15.960                             : en:Chapter 10
01:26:09.790                             : en:Chapter 11
01:36:31.202                             : en:Chapter 12



                                                                                                                                                                                                        
                                                                                                                                                                                                                                                                                                                                                                                                                                                                                                                                                                                                                                                                                                                                                                                                                                                      
0f0f47341fc20394110e13f20739f291.torrent (28.23 KB, 下载次数: 13)

回复

使用道具 举报

小黑屋|磁力链接吧 |网站地图

本网站所有资源来自网络,如无意中侵犯了您的权益,请发邮件至 [email protected],立即清除相关链接

GMT+8, 2020-2-21 21:36 , Processed in 0.092488 second(s), 23 queries .

Powered by Discuz! X3.2

© 2001-2013 Comsenz Inc.

快速回复 返回顶部 返回列表