磁力链接吧

 找回密码
 立即注册
搜索

[BD-4K] 奇幻森林/与森林共舞 The.Jungle.Book.2016.2160p.BluRay.x264.8bit.SDR....

[复制链接]
百度云资源 发表于 2020-1-17 19:54:50 | 显示全部楼层 |阅读模式
帖子完整标题:奇幻森林/与森林共舞 The.Jungle.Book.2016.2160p.BluRay.x264.8bit.SDR.DTS-HD.MA.TrueHD.7.1.Atmos-SWTYBLZ 35.73GB




◎译  名 奇幻森林 / 与森林共舞(台) / 丛林之书 / 森林王子
◎片  名 The Jungle Book
◎年  代 2016
◎产  地 美国
◎类  别 剧情 / 奇幻 / 冒险
◎语  言 英语
◎上映日期 2016-04-15(美国/中国大陆)
◎IMDb评分  7.4/10 from 247901 users
◎bt电影天堂 www.btddy.com
◎片  长 106分钟
◎导  演 乔恩·费儒 Jon Favreau
◎编  剧 贾斯丁·马科斯 Justin Marks / 拉迪亚德·吉普林 Rudyard Kipling
◎主  演 尼尔·塞西 Neel Sethi
       比尔·默瑞 Bill Murray
       本·金斯利 Ben Kingsley
       伊德里斯·艾尔巴 Idris Elba
       露皮塔·尼永奥 Lupita Nyong'o
       斯嘉丽·约翰逊 Scarlett Johansson
       吉安卡罗·埃斯波西托 Giancarlo Esposito
       克里斯托弗·沃肯 Christopher Walken
       恩杰伊·安东尼 Emjay Anthony
       盖瑞·山德林 Garry Shandling
       莎拉·阿林顿 Sara Arrington
       瑞提什·拉詹 Ritesh Rajan


◎标  签 奇幻 | 迪士尼 | 美国 | 动画 | 冒险 | 动物 | Disney | 2016

◎简  介  

  茂密的原始森林中,生活着人类小孩毛克利(尼尔·塞西 Neel Sethi 饰)。因某种原因他很小就成为了孤儿,黑豹巴希拉(本·金斯利 Ben Kingsley 配音)最先找到了他,并将毛克利托付给狼族的首领阿克拉。从此以后,毛克利以狼的身份在森林里成长起来,和他的兄弟姐妹们学习捕猎和求生技巧。然而并非所有动物都接受毛克利的存在,特别是曾被人类伤害的老虎谢利·可汗(伊德里斯·艾尔巴 Idris Elba 配音),更将男孩视为眼中钉肉中刺。谢利·可汗向狼族发出威胁,众狼们不得不为族群的命运做出考量。毛克利不希望“家人”为难,他选择离开狼群,而唯一陪伴他的巴希拉则希望带着男孩回归人类世界。
  即便如此,谢利·可汗也绝不肯善罢甘休,他对男孩展开了无休止的追杀……

◎获奖情况  

  第89届奥斯卡金像奖(2017)
  最佳视觉效果 Andrew R. Jones / 丹·赖蒙 / 罗伯特·莱加托 / 亚当·瓦德兹

  第70届英国电影学院奖(2017)
  电影奖 最佳特殊视觉效果 Andrew R. Jones / 丹·赖蒙 / 罗伯特·莱加托 / 亚当·瓦德兹

  第44届动画安妮奖(2017)
  最佳真人电影动画角色

  第67届美国剪辑工会奖(2017)
  音乐/喜剧片最佳剪辑(提名)

  第15届美国视觉效果协会奖(2017)
  最佳特效电影视觉效果
  最佳真人电影CG动画角色
  最佳电影虚拟摄影
  最佳真人电影模拟动画效果
  最佳电影视觉效果合成

  第22届美国评论家选择电影奖(2017)
  最佳视觉效果

  第21届金卫星奖(2017)
  电影部门 最佳动画片(提名)
  电影部门 最佳改编剧本(提名) 贾斯丁·马科斯
  电影部门 最佳原创配乐(提名) 约翰·戴布尼
  电影部门 最佳摄影 比尔·波普
  电影部门 最佳视觉效果 Andrew R. Jones / 丹·赖蒙 / 罗伯特·莱加托 / 亚当·瓦德兹
  电影部门 最佳音效(提名) Frank E. Eulner / Lora Hirschberg / 克里斯托弗·博伊斯 / 朗·贾金斯
  电影部门 最佳美术指导(提名) 克里斯托弗·格拉斯

  第20届好莱坞电影奖(2016)
  年度音效
  最佳卖座片

  第3届豆瓣电影年度榜单(2016)
  4月最受关注电影
Video
ID                                       : 1
Format                                   : AVC
Format settings                          : CABAC / 5 Ref Frames
Format settings, CABAC                   : Yes
Format settings, Reference frames        : 5 frames
Codec ID                                 : V_MPEG4/ISO/AVC
Duration                                 : 1 h 45 min
Bit rate                                 : 38.0 Mb/s
Width                                    : 3 840 pixels
Height                                   : 2 076 pixels
Display aspect ratio                     : 1.85:1
Frame rate mode                          : Constant
Frame rate                               : 23.976 (24000/1001) FPS
Color space                              : YUV
Chroma subsampling                       : 4:2:0
Bit depth                                : 8 bits
Scan type                                : Progressive
Bits/(Pixel*Frame)                       : 0.199
Stream size                              : 28.1 GiB (79%)
Title                                    : The.Jungle.Book.2016.2160p.BluRay.x264.8bit.SDR.DTS-HD.MA.TrueHD.7.1.Atmos-SWTYBLZ
Writing library                          : x264 core 157 r2935 545de2f
Encoding settings                        : cabac=1 / ref=5 / deblock=1:-1:-1 / analyse=0x3:0x113 / me=umh / subme=10 / psy=1 / psy_rd=1.00:0.15 / mixed_ref=1 / me_range=48 / chroma_me=1 / trellis=2 / 8x8dct=1 / cqm=0 / deadzone=21,11 / fast_pskip=1 / chroma_qp_offset=-3 / threads=36 / lookahead_threads=3 / sliced_threads=0 / nr=0 / decimate=0 / interlaced=0 / bluray_compat=0 / constrained_intra=0 / bframes=3 / b_pyramid=2 / b_adapt=2 / b_bias=0 / direct=3 / weightb=1 / open_gop=0 / weightp=2 / keyint=250 / keyint_min=23 / scenecut=40 / intra_refresh=0 / rc_lookahead=50 / rc=crf / mbtree=1 / crf=18.0 / qcomp=0.60 / qpmin=0 / qpmax=69 / qpstep=4 / ip_ratio=1.40 / aq=1:1.00
Default                                  : Yes
Forced                                   : No

Audio #1
ID                                       : 2
Format                                   : MLP FBA 16-ch
Format/Info                              : Meridian Lossless Packing FBA with 16-channel presentation
Commercial name                          : Dolby TrueHD with Dolby Atmos
Codec ID                                 : A_TRUEHD
Duration                                 : 1 h 45 min
Bit rate mode                            : Variable
Bit rate                                 : 5 185 kb/s
Maximum bit rate                         : 7 926 kb/s
Channel(s)                               : 8 channels
Channel layout                           : L R C LFE Ls Rs Lb Rb
Sampling rate                            : 48.0 kHz
Frame rate                               : 1 200.000 FPS (40 SPF)
Compression mode                         : Lossless
Stream size                              : 3.84 GiB (11%)
Title                                    : The.Jungle.Book.2016.2160p.BluRay.x264.8bit.SDR.DTS-HD.MA.TrueHD.7.1.Atmos-SWTYBLZ
Language                                 : English
Default                                  : Yes
Forced                                   : No
Number of dynamic objects                : 13
Bed channel count                        : 1 channel
Bed channel configuration                : LFE

Audio #2
ID                                       : 3
Format                                   : DTS XLL
Format/Info                              : Digital Theater Systems
Commercial name                          : DTS-HD Master Audio
Codec ID                                 : A_DTS
Duration                                 : 1 h 45 min
Bit rate mode                            : Variable
Bit rate                                 : 4 137 kb/s
Channel(s)                               : 8 channels
Channel layout                           : C L R LFE Lb Rb Lss Rss
Sampling rate                            : 48.0 kHz
Frame rate                               : 93.750 FPS (512 SPF)
Bit depth                                : 24 bits
Compression mode                         : Lossless
Stream size                              : 3.06 GiB (9%)
Title                                    : The.Jungle.Book.2016.2160p.BluRay.x264.8bit.SDR.DTS-HD.MA.TrueHD.7.1.Atmos-SWTYBLZ
Language                                 : English
Default                                  : No
Forced                                   : No

Audio #3
ID                                       : 4
Format                                   : AC-3
Format/Info                              : Audio Coding 3
Commercial name                          : Dolby Digital
Codec ID                                 : A_AC3
Duration                                 : 1 h 45 min
Bit rate mode                            : Constant
Bit rate                                 : 640 kb/s
Channel(s)                               : 6 channels
Channel layout                           : L R C LFE Ls Rs
Sampling rate                            : 48.0 kHz
Frame rate                               : 31.250 FPS (1536 SPF)
Compression mode                         : Lossy
Stream size                              : 485 MiB (1%)
Title                                    : The.Jungle.Book.2016.2160p.BluRay.x264.8bit.SDR.DTS-HD.MA.TrueHD.7.1.Atmos-SWTYBLZ
Language                                 : English
Service kind                             : Complete Main
Default                                  : No
Forced                                   : No

Text #1
ID                                       : 5
Format                                   : UTF-8
Codec ID                                 : S_TEXT/UTF8
Codec ID/Info                            : UTF-8 Plain Text
Duration                                 : 1 h 44 min
Bit rate                                 : 42 b/s
Count of elements                        : 1215
Stream size                              : 32.3 KiB (0%)
Title                                    : English-SRT
Language                                 : English
Default                                  : Yes
Forced                                   : No

Text #2
ID                                       : 6
Format                                   : UTF-8
Codec ID                                 : S_TEXT/UTF8
Codec ID/Info                            : UTF-8 Plain Text
Duration                                 : 1 h 44 min
Bit rate                                 : 47 b/s
Count of elements                        : 1402
Stream size                              : 36.5 KiB (0%)
Title                                    : English-SDH-SRT
Language                                 : English
Default                                  : No
Forced                                   : No

Text #3
ID                                       : 7
Format                                   : PGS
Muxing mode                              : zlib
Codec ID                                 : S_HDMV/PGS
Codec ID/Info                            : Picture based subtitle format used on BDs/HD-DVDs
Duration                                 : 1 h 44 min
Bit rate                                 : 32.4 kb/s
Count of elements                        : 2822
Stream size                              : 24.2 MiB (0%)
Title                                    : English-PGS
Language                                 : English
Default                                  : No
Forced                                   : No

Text #4
ID                                       : 8
Format                                   : PGS
Muxing mode                              : zlib
Codec ID                                 : S_HDMV/PGS
Codec ID/Info                            : Picture based subtitle format used on BDs/HD-DVDs
Duration                                 : 1 h 45 min
Bit rate                                 : 24.8 kb/s
Count of elements                        : 2256
Stream size                              : 18.7 MiB (0%)
Title                                    : French-PGS
Language                                 : French
Default                                  : No
Forced                                   : No

Text #5
ID                                       : 9
Format                                   : PGS
Muxing mode                              : zlib
Codec ID                                 : S_HDMV/PGS
Codec ID/Info                            : Picture based subtitle format used on BDs/HD-DVDs
Duration                                 : 1 h 44 min
Bit rate                                 : 22.6 kb/s
Count of elements                        : 2156
Stream size                              : 17.0 MiB (0%)
Title                                    : French-PGS
Language                                 : French
Default                                  : No
Forced                                   : No

Text #6
ID                                       : 10
Format                                   : PGS
Muxing mode                              : zlib
Codec ID                                 : S_HDMV/PGS
Codec ID/Info                            : Picture based subtitle format used on BDs/HD-DVDs
Duration                                 : 1 h 44 min
Bit rate                                 : 24.1 kb/s
Count of elements                        : 2204
Stream size                              : 18.1 MiB (0%)
Title                                    : Spanish-PGS
Language                                 : Spanish
Default                                  : No
Forced                                   : No

Text #7
ID                                       : 11
Format                                   : PGS
Muxing mode                              : zlib
Codec ID                                 : S_HDMV/PGS
Codec ID/Info                            : Picture based subtitle format used on BDs/HD-DVDs
Duration                                 : 1 h 44 min
Bit rate                                 : 26.9 kb/s
Count of elements                        : 2200
Stream size                              : 20.1 MiB (0%)
Title                                    : German-PGS
Language                                 : German
Default                                  : No
Forced                                   : No

Text #8
ID                                       : 12
Format                                   : PGS
Muxing mode                              : zlib
Codec ID                                 : S_HDMV/PGS
Codec ID/Info                            : Picture based subtitle format used on BDs/HD-DVDs
Duration                                 : 1 h 44 min
Bit rate                                 : 24.5 kb/s
Count of elements                        : 2220
Stream size                              : 18.4 MiB (0%)
Title                                    : Italian-PGS
Language                                 : Italian
Default                                  : No
Forced                                   : No

Text #9
ID                                       : 13
Format                                   : PGS
Muxing mode                              : zlib
Codec ID                                 : S_HDMV/PGS
Codec ID/Info                            : Picture based subtitle format used on BDs/HD-DVDs
Duration                                 : 1 h 44 min
Bit rate                                 : 23.8 kb/s
Count of elements                        : 2216
Stream size                              : 17.9 MiB (0%)
Title                                    : Norwegian-PGS
Language                                 : Norwegian
Default                                  : No
Forced                                   : No

Text #10
ID                                       : 14
Format                                   : PGS
Muxing mode                              : zlib
Codec ID                                 : S_HDMV/PGS
Codec ID/Info                            : Picture based subtitle format used on BDs/HD-DVDs
Duration                                 : 1 h 44 min
Bit rate                                 : 21.4 kb/s
Count of elements                        : 1424
Stream size                              : 16.0 MiB (0%)
Title                                    : Swedish-PGS
Language                                 : Swedish
Default                                  : No
Forced                                   : No

Menu
00:00:00.000                             : en:Chapter 01
00:00:48.590                             : en:Chapter 02
00:05:15.690                             : en:Chapter 03
00:09:02.250                             : en:Chapter 04
00:12:42.553                             : en:Chapter 05
00:16:34.159                             : en:Chapter 06
00:21:20.320                             : en:Chapter 07
00:27:15.133                             : en:Chapter 08
00:35:03.851                             : en:Chapter 09
00:43:21.890                             : en:Chapter 10
00:48:05.591                             : en:Chapter 11
00:53:29.331                             : en:Chapter 12
00:58:03.271                             : en:Chapter 13
01:05:47.318                             : en:Chapter 14
01:10:35.522                             : en:Chapter 15
01:17:01.325                             : en:Chapter 16
01:20:49.803                             : en:Chapter 17
01:24:46.372                             : en:Chapter 18
01:30:33.052                             : en:Chapter 19
01:35:53.164                             : en:Chapter 20



                                                                                                                                                                                                        
                                                                                                                                                                                                                                                                                                                                                                                                                                                                                                                                                                                                                                                                                                                                                                                                                                                      

18d887f02d46aba0cf698dcdac93b0b8.torrent (89.98 KB, 下载次数: 19)

回复

使用道具 举报

小黑屋|磁力链接吧 |网站地图

本网站所有资源来自网络,如无意中侵犯了您的权益,请发邮件至 [email protected],立即清除相关链接

GMT+8, 2020-2-23 17:00 , Processed in 0.068016 second(s), 23 queries .

Powered by Discuz! X3.2

© 2001-2013 Comsenz Inc.

快速回复 返回顶部 返回列表