磁力链接吧

 找回密码
 立即注册
搜索

[4K-原盘] 双子杀手/双子任务:叠影危机 Gemini.Man.2019.2160p.BluRay.REMUX.HEV...

[复制链接]
百度云资源 发表于 2020-1-6 19:16:49 | 显示全部楼层 |阅读模式
帖子完整标题:双子杀手/双子任务:叠影危机 Gemini.Man.2019.2160p.BluRay.REMUX.HEVC.DTS-HD.MA.TrueHD.7.1.Atmos-FGT 79.62GB




◎译  名 双子杀手 / 双子任务:叠影危机(港) / 双子煞星
◎片  名 Gemini Man
◎年  代 2019
◎产  地 美国 / 中国大陆
◎类  别 剧情 / 动作 / 科幻
◎语  言 英语
◎上映日期 2019-10-11(美国) / 2019-10-18(中国大陆)
◎IMDb评分  5.7/10 from 19509 users
◎片  长 117分钟
◎导  演 李安 Ang Lee
◎编  剧 戴维·贝尼奥夫 David Benioff / 比利·雷 Billy Ray / 达伦·莱姆克 Darren Lemke
◎主  演 威尔·史密斯 Will Smith
       玛丽·伊丽莎白·温斯特德 Mary Elizabeth Winstead
       克里夫·欧文 Clive Owen
       本尼迪克特·王 Benedict Wong
       道格拉斯·霍奇斯 Douglas Hodges
       拉尔夫·布朗 Ralph Brown
       琳达·伊蒙 Linda Emond
       伊利亚·沃里克 Ilia Volok
       E·J·博尼拉 E.J. Bonilla
       维克多·雨果 Victor Hugo
       大卫·莫拉蒂 David Moretti
       西奥多拉·伍利 Theodora Woolley
       亚历山德拉·苏奇 Alexandra Szucs
       费尔南达·多罗吉 Fernanda Dorogi
       提姆·康纳利 Tim Connolly
       比约恩·弗赖贝格 Bj?rn Freiberg
       施奎塔·詹姆斯 Shiquita James
       肯尼·谢尔德 Kenny Sheard
       Diego Adonye
       Igor Szasz
       Lilla Banak


◎标  签 动作 | 美国 | 科幻 | 120帧 | 克隆 | 2019 | 剧情 | 悬疑

◎简  介  

  美国国防情报局特工亨利(威尔·史密斯饰),准备退休之际意外遭到一名神秘杀手的追杀,在两人的激烈较量中,他发现这名杀手竟然是年轻了20多岁的自己,一场我与我的对决旋即展开,而背后的真相也逐渐浮出水面。
Video #1
ID                                       : 1
Format                                   : HEVC
HDR format                               : SMPTE ST 2086, HDR10 compatible
Codec ID                                 : V_MPEGH/ISO/HEVC
Duration                                 : 1 h 57 min
Bit rate                                 : 81.0 Mb/s
Width                                    : 3 840 pixels
Height                                   : 2 160 pixels
Display aspect ratio                     : 16:9
Frame rate mode                          : Constant
Frame rate                               : 59.940 (60000/1001) FPS
Color space                              : YUV
Chroma subsampling                       : 4:2:0 (Type 2)
Bit depth                                : 10 bits
Bits/(Pixel*Frame)                       : 0.163
Stream size                              : 66.2 GiB (83%)
Title                                    : Gemini.Man.2019.2160p.BluRay.REMUX.HEVC.DTS-HD.MA.TrueHD.7.1.Atmos-FGT
Language                                 : English
Default                                  : Yes
Forced                                   : No
Color range                              : Limited
Color primaries                          : BT.2020
Transfer characteristics                 : PQ
Matrix coefficients                      : BT.2020 non-constant
Mastering display color primaries        : Display P3
Mastering display luminance              : min: 0.0010 cd/m2, max: 1000 cd/m2
Maximum Content Light Level              : 5180 cd/m2
Maximum Frame-Average Light Level        : 1577 cd/m2


Video #2
ID                                       : 2
Format                                   : HEVC
Format/Info                              : High Efficiency Video Coding
Format profile                           : Main 1@High
HDR format                               : SMPTE ST 2086, HDR10 compatible
Codec ID                                 : V_MPEGH/ISO/HEVC
Duration                                 : 1 h 57 min
Bit rate                                 : 2 684 kb/s
Width                                    : 1 920 pixels
Height                                   : 1 080 pixels
Display aspect ratio                     : 16:9
Frame rate mode                          : Constant
Frame rate                               : 59.940 (60000/1001) FPS
Color space                              : YUV
Chroma subsampling                       : 4:2:0 (Type 2)
Bit depth                                : 10 bits
Bits/(Pixel*Frame)                       : 0.022
Stream size                              : 2.19 GiB (3%)
Title                                    : Gemini.Man.2019.2160p.BluRay.REMUX.HEVC.DTS-HD.MA.TrueHD.7.1.Atmos-FGT
Default                                  : No
Forced                                   : No
Color range                              : Limited
Color primaries                          : BT.2020
Transfer characteristics                 : PQ
Matrix coefficients                      : BT.2020 non-constant
Mastering display color primaries        : Display P3
Mastering display luminance              : min: 0.0010 cd/m2, max: 1000 cd/m2

Audio #1
ID                                       : 3
Format                                   : MLP FBA 16-ch
Format/Info                              : Meridian Lossless Packing FBA with 16-channel presentation
Commercial name                          : Dolby TrueHD with Dolby Atmos
Codec ID                                 : A_TRUEHD
Duration                                 : 1 h 57 min
Bit rate mode                            : Variable
Bit rate                                 : 4 204 kb/s
Maximum bit rate                         : 7 944 kb/s
Channel(s)                               : 8 channels
Channel layout                           : L R C LFE Ls Rs Lb Rb
Sampling rate                            : 48.0 kHz
Frame rate                               : 1 200.000 FPS (40 SPF)
Compression mode                         : Lossless
Stream size                              : 3.44 GiB (4%)
Title                                    : Gemini.Man.2019.2160p.BluRay.REMUX.HEVC.DTS-HD.MA.TrueHD.7.1.Atmos-FGT
Language                                 : English
Default                                  : Yes
Forced                                   : No
Number of dynamic objects                : 11
Bed channel count                        : 1 channel
Bed channel configuration                : LFE

Audio #2
ID                                       : 4
Format                                   : DTS XLL
Format/Info                              : Digital Theater Systems
Commercial name                          : DTS-HD Master Audio
Codec ID                                 : A_DTS
Duration                                 : 1 h 57 min
Bit rate mode                            : Variable
Bit rate                                 : 4 125 kb/s
Channel(s)                               : 8 channels
Channel layout                           : C L R LFE Lb Rb Lss Rss
Sampling rate                            : 48.0 kHz
Frame rate                               : 93.750 FPS (512 SPF)
Bit depth                                : 24 bits
Compression mode                         : Lossless
Stream size                              : 3.37 GiB (4%)
Title                                    : Gemini.Man.2019.2160p.BluRay.REMUX.HEVC.DTS-HD.MA.TrueHD.7.1.Atmos-FGT
Default                                  : No
Forced                                   : No

Audio #3
ID                                       : 5
Format                                   : AC-3
Format/Info                              : Audio Coding 3
Commercial name                          : Dolby Digital
Codec ID                                 : A_AC3
Duration                                 : 1 h 57 min
Bit rate mode                            : Constant
Bit rate                                 : 640 kb/s
Channel(s)                               : 6 channels
Channel layout                           : L R C LFE Ls Rs
Sampling rate                            : 48.0 kHz
Frame rate                               : 31.250 FPS (1536 SPF)
Bit depth                                : 16 bits
Compression mode                         : Lossy
Stream size                              : 536 MiB (1%)
Title                                    : Gemini.Man.2019.2160p.BluRay.REMUX.HEVC.DTS-HD.MA.TrueHD.7.1.Atmos-FGT
Language                                 : English
Service kind                             : Complete Main
Default                                  : No
Forced                                   : No


Menu
00:00:00.000                             : en:Chapter 01
00:07:21.491                             : en:Chapter 02
00:15:31.680                             : en:Chapter 03
00:18:12.841                             : en:Chapter 04
00:24:39.177                             : en:Chapter 05
00:30:59.407                             : en:Chapter 06
00:34:09.430                             : en:Chapter 07
00:42:39.940                             : en:Chapter 08
00:50:25.338                             : en:Chapter 09
00:56:45.819                             : en:Chapter 10
01:03:30.006                             : en:Chapter 11
01:08:12.822                             : en:Chapter 12
01:16:45.901                             : en:Chapter 13
01:24:44.412                             : en:Chapter 14
01:30:04.549                             : en:Chapter 15
01:34:00.851                             : en:Chapter 16
01:42:14.461                             : en:Chapter 17
01:47:07.287                             : en:Chapter 18



                                                                                                                                                                                                        
                                                                                                                                                                                                                                                                                                                                                                                                                                                                                                                                                                                                                                                                                                                                                                                                                                                      
8cd19573dcebf8f9cdb419a5f94fb5e0.torrent (199.6 KB, 下载次数: 27)

回复

使用道具 举报

小黑屋|磁力链接吧 |网站地图

本网站所有资源来自网络,如无意中侵犯了您的权益,请发邮件至 [email protected],立即清除相关链接

GMT+8, 2020-2-23 15:58 , Processed in 0.061471 second(s), 23 queries .

Powered by Discuz! X3.2

© 2001-2013 Comsenz Inc.

快速回复 返回顶部 返回列表