磁力链接吧

 找回密码
 立即注册
搜索

爱宠大机密2/Pet Pet当家2 The.Secret.Life.of.Pets.2.2019.3D.1080p.BluRa...

[复制链接]
百度云资源 发表于 2019-10-25 19:02:08 | 显示全部楼层 |阅读模式
帖子完整标题:爱宠大机密2/Pet Pet当家2 The.Secret.Life.of.Pets.2.2019.3D.1080p.BluRay.x264-GUACAMOLE 6.57GB




◎译  名 爱宠大机密2 / Pet Pet当家2(港) / 宠物当家2(台) / 宠物的秘密生活2
◎片  名 The Secret Life of Pets 2
◎年  代 2019
◎产  地 美国
◎类  别 喜剧 / 动画 / 冒险
◎语  言 英语
◎上映日期 2019-06-07(美国) / 2019-07-05(中国大陆)
◎IMDb评分  6.5/10 from 12078 users
◎片  长 86分钟
◎导  演 克里斯·雷纳德 Chris Renaud
◎编  剧 布莱恩·林奇 Brian Lynch
◎主  演 帕顿·奥斯瓦尔特 Patton Oswalt
       凯文·哈特 Kevin Hart
       哈里森·福特 Harrison Ford
       艾瑞克·斯通斯崔特 Eric Stonestreet
       珍妮·斯蕾特 Jenny Slate
       蒂凡尼·哈迪斯 Tiffany Haddish
       蕾克·贝尔 Lake Bell
       达纳·卡维 Dana Carvey
       鲍比·莫尼汉 Bobby Moynihan
       汉尼拔·布勒斯 Hannibal Buress
       克里斯·雷纳德 Chris Renaud
       艾丽·坎伯尔 Ellie Kemper
       皮特·霍尔姆斯 Pete Holmes
       尼克·克罗尔 Nick Kroll
       肖恩·吉布朗尼 Sean Giambrone
       梅雷迪斯·萨拉格尔 Meredith Salenger
       迈克尔·贝亚蒂 Michael Beattie
       大卫·阿克德 David Acord
       斯科特·摩西尔 Scott Mosier
       杰米·卡米尔 Jaime Camil
       拉瑞恩·纽曼 Laraine Newman
       布莱恩·T·德莱尼 Brian T. Delaney
       杰西卡·迪西可 Jessica Di Cicco
       桑德拉·艾切维里亚 Sandra Echeverría
       加斯·詹宁斯 Garth Jennings
       塔拉·斯特朗 Tara Strong
       弗雷德·塔特西奥 Fred Tatasciore
       约翰·卡西尔 John Kassir
       斯科特·门维尔 Scott Menville
       马修·伍德 Matthew Wood


◎标  签 动画 | 宠物 | 喜剧 | 美国 | 搞笑 | 萌 | 2019 | 动物

◎简  介  

  《爱宠大机密2》将延续2016年夏天轰动一时的《爱宠大机密》的故事,讲述宠物在我们每天离家工作或上学后的生活。照明娱乐创始人兼首席执行官克里斯·梅勒丹德利和他长久以来的合作伙伴珍娜·海莉将共同制作这部续集。《爱宠大机密》是当时开画成绩最好的原创电影,不论是动画片还是其他类型。
  《爱宠大机密2》继续由布莱恩·林奇(《小黄人大眼萌》)编剧,并再一次由克里斯·雷纳德(《神偷奶爸》系列,《老雷斯的故事》)执导。
Video
ID                                       : 1
Format                                   : AVC
Format/Info                              : Advanced Video Codec
MultiView_Count                          : 2
MultiView_Layout                         : Side by Side (left eye first)
Format settings                          : CABAC / 5 Ref Frames
Format settings, CABAC                   : Yes
Format settings, Reference frames        : 5 frames
Codec ID                                 : V_MPEG4/ISO/AVC
Duration                                 : 1 h 26 min
Bit rate                                 : 10.3 Mb/s
Width                                    : 1 920 pixels
Height                                   : 1 040 pixels
Display aspect ratio                     : 1.85:1
Frame rate mode                          : Constant
Frame rate                               : 23.976 FPS
Color space                              : YUV
Chroma subsampling                       : 4:2:0
Bit depth                                : 8 bits
Scan type                                : Progressive
Bits/(Pixel*Frame)                       : 0.214
Stream size                              : 6.17 GiB (94%)
Writing library                          : x264 core 157 r2969 d4099dd
Encoding settings                        : cabac=1 / ref=5 / deblock=1:-1:-1 / analyse=0x3:0x113 / me=umh / subme=8 / psy=1 / psy_rd=1.00:0.00 / mixed_ref=1 / me_range=16 / chroma_me=1 / trellis=2 / 8x8dct=1 / cqm=0 / deadzone=21,11 / fast_pskip=0 / chroma_qp_offset=-2 / threads=32 / lookahead_threads=5 / sliced_threads=0 / nr=0 / decimate=1 / interlaced=0 / bluray_compat=0 / constrained_intra=0 / bframes=5 / b_pyramid=2 / b_adapt=1 / b_bias=0 / direct=3 / weightb=1 / open_gop=0 / weightp=1 / keyint=250 / keyint_min=23 / scenecut=40 / intra_refresh=0 / rc_lookahead=40 / rc=2pass / mbtree=1 / bitrate=10269 / ratetol=1.0 / qcomp=0.60 / qpmin=0 / qpmax=69 / qpstep=4 / cplxblur=20.0 / qblur=0.5 / ip_ratio=1.40 / aq=1:1.00
Language                                 : English
Default                                  : Yes
Forced                                   : No

Audio
ID                                       : 2
Format                                   : AC-3
Format/Info                              : Audio Coding 3
Commercial name                          : Dolby Digital
Codec ID                                 : A_AC3
Duration                                 : 1 h 26 min
Bit rate mode                            : Constant
Bit rate                                 : 640 kb/s
Channel(s)                               : 6 channels
Channel layout                           : L R C LFE Ls Rs
Sampling rate                            : 48.0 kHz
Frame rate                               : 31.250 FPS (1536 SPF)
Bit depth                                : 16 bits
Compression mode                         : Lossy
Stream size                              : 394 MiB (6%)
Language                                 : English
Service kind                             : Complete Main
Default                                  : Yes
Forced                                   : No

Menu
00:00:00.000                             : :Kapitel 01
00:05:34.543                             : :Kapitel 02
00:10:07.816                             : :Kapitel 03
00:13:26.305                             : :Kapitel 04
00:16:39.790                             : :Kapitel 05
00:19:56.946                             : :Kapitel 06
00:24:10.074                             : :Kapitel 07
00:28:15.736                             : :Kapitel 08
00:30:54.269                             : :Kapitel 09
00:35:15.113                             : :Kapitel 10
00:39:55.977                             : :Kapitel 11
00:45:47.328                             : :Kapitel 12
00:49:51.822                             : :Kapitel 13
00:56:54.995                             : :Kapitel 14
00:58:35.220                             : :Kapitel 15
01:02:48.932                             : :Kapitel 16
01:07:16.616                             : :Kapitel 17
01:12:48.823                             : :Kapitel 18
01:15:21.809                             : :Kapitel 19
01:18:10.019                             : :Kapitel 20



                  759c4ae3556ee01a40365dab31ba03af.torrent (33.6 KB, 下载次数: 24)

回复

使用道具 举报

小黑屋|磁力链接吧 |网站地图

本网站所有资源来自网络,如无意中侵犯了您的权益,请发邮件至 [email protected],立即清除相关链接

GMT+8, 2020-3-31 08:32 , Processed in 3.688950 second(s), 23 queries .

Powered by Discuz! X3.2

© 2001-2013 Comsenz Inc.

快速回复 返回顶部 返回列表