磁力链接吧

 找回密码
 立即注册
搜索

玩具总动员4/反斗奇兵4 Toy.Story.4.2019.1080p.3D.BluRay.Half-OU.x264....

[复制链接]
百度云资源 发表于 2019-10-19 22:52:56 | 显示全部楼层 |阅读模式


帖子完整标题:玩具总动员4/反斗奇兵4 Toy.Story.4.2019.1080p.3D.BluRay.Half-OU.x264.TrueHD.7.1.Atmos-FGT 17.72GB




◎译  名 玩具总动员4 / 反斗奇兵4(港)
◎片  名 Toy Story 4
◎年  代 2019
◎产  地 美国
◎类  别 喜剧 / 动画 / 奇幻
◎语  言 英语
◎上映日期 2019-06-21(美国/中国大陆)
◎IMDb评分  8.1/10 from 89180 users
◎片  长 100分钟
◎导  演 乔什·库雷 Josh Cooley
◎编  剧 约翰·拉塞特 John Lasseter / 安德鲁·斯坦顿 Andrew Stanton / 彼特·道格特 Pete Docter / 李·昂克里奇 Lee Unkrich / 威尔·麦克马克 Will McCormack / 史黛芬妮·福尔松 Stephany Folsom / C·S·安德森 C.S. Anderson
◎主  演 汤姆·汉克斯 Tom Hanks
       蒂姆·艾伦 Tim Allen
       安妮·波茨 Annie Potts
       托尼·海尔 Tony Hale
       科甘-迈克尔·凯 Keegan-Michael Key
       玛德琳·麦格劳 Madeleine McGraw
       克里斯蒂娜·亨德里克斯 Christina Hendricks
       乔丹·皮尔 Jordan Peele
       基努·里维斯 Keanu Reeves
       松村艾丽 Ally Maki
       杰伊·埃尔南德斯 Jay Hernandez
       罗里·艾伦 Lori Alan
       琼·库萨克 Joan Cusack
       邦尼·亨特 Bonnie Hunt
       克里斯汀·沙尔 Kristen Schaal
       华莱士·肖恩 Wallace Shawn
       约翰·拉岑贝格 John Ratzenberger
       布莱克·克拉克 Blake Clark
       琼·斯奎布 June Squibb
       卡尔·韦瑟斯 Carl Weathers
       唐·里克斯 Don Rickles
       杰夫·格尔林 Jeff Garlin
       朱莉安娜·汉森 Juliana Hansen
       爱丝黛儿·哈里斯 Estelle Harris
       劳里·梅特卡夫 Laurie Metcalf
       史蒂夫·波赛尔 Steve Purcell
       梅尔·布鲁克斯 Mel Brooks
       艾伦·欧朋海默 Alan Oppenheimer
       卡罗尔·博内特 Carol Burnett
       贝蒂·怀特 Betty White
       卡尔·雷纳 Carl Reiner
       比尔·哈德尔 Bill Hader
       帕特丽夏·阿奎特 Patricia Arquette
       提摩西·道尔顿 Timothy Dalton
       弗利 Flea
       梅丽莎·维拉斯诺 Melissa Villase?or
       杰夫·皮金 Jeff Pidgeon
       约翰·莫里斯 John Morris


◎标  签 皮克斯 | 动画 | 迪士尼 | 温情 | 美国 | 童年 | 2019 | 成长

◎简  介  

  胡迪深知自己在这个世界上的使命,就是照顾他的主人,无论是原来的安迪还是新主人邦妮。当邦妮将不情愿成为玩具的“叉叉”带回家时,胡迪又担起了教导叉叉接受自己新身份的责任。 然而当邦妮将所有玩具带上房车家庭旅行时,胡迪与伙伴们将共同踏上全新的冒险之旅,领略房间外面的世界有多广阔,甚至偶遇老朋友牧羊女。在多年的独自闯荡中,牧羊女已经变得热爱冒险,不再只是一个精致的洋娃娃。正当胡迪和牧羊女发现彼此对玩具的使命的意义大相径庭时,他们很快意识到更大的威胁即将到来……
Video
ID                                       : 1
Format                                   : AVC
Format/Info                              : Advanced Video Codec
Format settings                          : CABAC / 3 Ref Frames
Format settings, CABAC                   : Yes
Format settings, Reference frames        : 3 frames
Codec ID                                 : V_MPEG4/ISO/AVC
Duration                                 : 1 h 40 min
Bit rate                                 : 16.0 Mb/s
Width                                    : 1 920 pixels
Height                                   : 1 080 pixels
Display aspect ratio                     : 16:9
Frame rate mode                          : Constant
Frame rate                               : 23.976 (24000/1001) FPS
Color space                              : YUV
Chroma subsampling                       : 4:2:0
Bit depth                                : 8 bits
Scan type                                : Progressive
Bits/(Pixel*Frame)                       : 0.322
Stream size                              : 11.2 GiB (63%)
Title                                    : Toy.Story.4.2019.1080p.3D.BluRay.Half-OU.x264.TrueHD.7.1.Atmos-FGT
Writing library                          : x264 core 148
Encoding settings                        : cabac=1 / ref=3 / deblock=1:-1:-1 / analyse=0x3:0 / me=hex / subme=5 / psy=1 / psy_rd=1.00:0.00 / mixed_ref=0 / me_range=16 / chroma_me=1 / trellis=1 / 8x8dct=1 / cqm=0 / deadzone=21,11 / fast_pskip=0 / chroma_qp_offset=0 / threads=24 / lookahead_threads=6 / sliced_threads=0 / nr=0 / decimate=1 / interlaced=0 / bluray_compat=0 / constrained_intra=0 / bframes=2 / b_pyramid=0 / b_adapt=1 / b_bias=0 / direct=1 / weightb=0 / open_gop=0 / weightp=0 / keyint=24 / keyint_min=2 / scenecut=40 / intra_refresh=0 / rc=abr / mbtree=0 / bitrate=16000 / ratetol=1.0 / qcomp=0.60 / qpmin=0 / qpmax=69 / qpstep=4 / ip_ratio=1.40 / pb_ratio=1.30 / aq=1:1.00
Default                                  : Yes
Forced                                   : No
Color range                              : Limited
Color primaries                          : BT.709
Transfer characteristics                 : BT.709
Matrix coefficients                      : BT.709

Audio #1
ID                                       : 2
Format                                   : MLP FBA 16-ch
Format/Info                              : Meridian Lossless Packing FBA with 16-channel presentation
Commercial name                          : Dolby TrueHD with Dolby Atmos
Codec ID                                 : A_TRUEHD
Duration                                 : 1 h 40 min
Bit rate mode                            : Variable
Bit rate                                 : 6 192 kb/s
Maximum bit rate                         : 8 532 kb/s
Channel(s)                               : 8 channels
Channel layout                           : L R C LFE Ls Rs Lb Rb
Sampling rate                            : 48.0 kHz
Frame rate                               : 1 200.000 FPS (40 SPF)
Compression mode                         : Lossless
Stream size                              : 4.33 GiB (24%)
Title                                    : Toy.Story.4.2019.1080p.3D.BluRay.Half-OU.x264.TrueHD.7.1.Atmos-FGT
Language                                 : English
Default                                  : Yes
Forced                                   : No
Number of dynamic objects                : 13
Bed channel count                        : 1 channel
Bed channel configuration                : LFE

Audio #2
ID                                       : 3
Format                                   : AC-3
Format/Info                              : Audio Coding 3
Commercial name                          : Dolby Digital
Codec ID                                 : A_AC3
Duration                                 : 1 h 40 min
Bit rate mode                            : Constant
Bit rate                                 : 640 kb/s
Channel(s)                               : 6 channels
Channel layout                           : L R C LFE Ls Rs
Sampling rate                            : 48.0 kHz
Frame rate                               : 31.250 FPS (1536 SPF)
Bit depth                                : 16 bits
Compression mode                         : Lossy
Stream size                              : 458 MiB (3%)
Title                                    : Toy.Story.4.2019.1080p.3D.BluRay.Half-OU.x264.TrueHD.7.1.Atmos-FGT
Language                                 : English
Service kind                             : Complete Main
Default                                  : No
Forced                                   : No

Audio #3
ID                                       : 4
Format                                   : AC-3
Format/Info                              : Audio Coding 3
Commercial name                          : Dolby Digital
Codec ID                                 : A_AC3
Duration                                 : 1 h 40 min
Bit rate mode                            : Constant
Bit rate                                 : 320 kb/s
Channel(s)                               : 2 channels
Channel layout                           : L R
Sampling rate                            : 48.0 kHz
Frame rate                               : 31.250 FPS (1536 SPF)
Bit depth                                : 16 bits
Compression mode                         : Lossy
Stream size                              : 229 MiB (1%)
Title                                    : Toy.Story.4.2019.1080p.3D.BluRay.Half-OU.x264.TrueHD.7.1.Atmos-FGT
Language                                 : English
Service kind                             : Complete Main
Default                                  : No
Forced                                   : No

Audio #4
ID                                       : 5
Format                                   : AC-3
Format/Info                              : Audio Coding 3
Commercial name                          : Dolby Digital
Codec ID                                 : A_AC3
Duration                                 : 1 h 40 min
Bit rate mode                            : Constant
Bit rate                                 : 320 kb/s
Channel(s)                               : 2 channels
Channel layout                           : L R
Sampling rate                            : 48.0 kHz
Frame rate                               : 31.250 FPS (1536 SPF)
Bit depth                                : 16 bits
Compression mode                         : Lossy
Stream size                              : 229 MiB (1%)
Title                                    : Toy.Story.4.2019.1080p.3D.BluRay.Half-OU.x264.TrueHD.7.1.Atmos-FGT
Language                                 : English
Service kind                             : Complete Main
Default                                  : No
Forced                                   : No

Audio #5
ID                                       : 6
Format                                   : E-AC-3
Format/Info                              : Enhanced AC-3
Commercial name                          : Dolby Digital Plus
Format profile                           : Blu-ray Disc
Codec ID                                 : A_EAC3
Duration                                 : 1 h 40 min
Bit rate mode                            : Constant
Bit rate                                 : 896 kb/s
Channel(s)                               : 8 channels
Channel layout                           : L R C LFE Ls Rs Lb Rb
Sampling rate                            : 48.0 kHz
Frame rate                               : 31.250 FPS (1536 SPF)
Compression mode                         : Lossy
Stream size                              : 641 MiB (4%)
Title                                    : Toy.Story.4.2019.1080p.3D.BluRay.Half-OU.x264.TrueHD.7.1.Atmos-FGT
Language                                 : French
Service kind                             : Complete Main
Default                                  : No
Forced                                   : No

Audio #6
ID                                       : 7
Format                                   : E-AC-3
Format/Info                              : Enhanced AC-3
Commercial name                          : Dolby Digital Plus
Format profile                           : Blu-ray Disc
Codec ID                                 : A_EAC3
Duration                                 : 1 h 40 min
Bit rate mode                            : Constant
Bit rate                                 : 896 kb/s
Channel(s)                               : 8 channels
Channel layout                           : L R C LFE Ls Rs Lb Rb
Sampling rate                            : 48.0 kHz
Frame rate                               : 31.250 FPS (1536 SPF)
Compression mode                         : Lossy
Stream size                              : 641 MiB (4%)
Title                                    : Toy.Story.4.2019.1080p.3D.BluRay.Half-OU.x264.TrueHD.7.1.Atmos-FGT
Language                                 : German
Service kind                             : Complete Main
Default                                  : No
Forced                                   : No

Text #1
ID                                       : 8
Format                                   : PGS
Muxing mode                              : zlib
Codec ID                                 : S_HDMV/PGS
Codec ID/Info                            : Picture based subtitle format used on BDs/HD-DVDs
Duration                                 : 1 h 39 min
Bit rate                                 : 67.4 kb/s
Count of elements                        : 4136
Stream size                              : 47.9 MiB (0%)
Title                                    : English-PGS
Language                                 : English
Default                                  : No
Forced                                   : No

Text #2
ID                                       : 9
Format                                   : PGS
Muxing mode                              : zlib
Codec ID                                 : S_HDMV/PGS
Codec ID/Info                            : Picture based subtitle format used on BDs/HD-DVDs
Duration                                 : 1 h 38 min
Bit rate                                 : 40.3 kb/s
Count of elements                        : 2910
Stream size                              : 28.3 MiB (0%)
Title                                    : French-PGS
Language                                 : French
Default                                  : No
Forced                                   : No

Text #3
ID                                       : 10
Format                                   : PGS
Muxing mode                              : zlib
Codec ID                                 : S_HDMV/PGS
Codec ID/Info                            : Picture based subtitle format used on BDs/HD-DVDs
Duration                                 : 1 h 38 min
Bit rate                                 : 49.5 kb/s
Count of elements                        : 3296
Stream size                              : 34.9 MiB (0%)
Title                                    : German-PGS
Language                                 : German
Default                                  : No
Forced                                   : No

Menu
00:00:00.000                             : en:Chapter 01
00:05:39.797                             : en:Chapter 02
00:11:21.097                             : en:Chapter 03
00:15:06.238                             : en:Chapter 04
00:19:01.140                             : en:Chapter 05
00:20:52.334                             : en:Chapter 06
00:22:43.779                             : en:Chapter 07
00:26:11.111                             : en:Chapter 08
00:27:47.082                             : en:Chapter 09
00:32:11.846                             : en:Chapter 10
00:36:17.425                             : en:Chapter 11
00:40:34.640                             : en:Chapter 12
00:42:56.699                             : en:Chapter 13
00:44:26.872                             : en:Chapter 14
00:46:39.379                             : en:Chapter 15
00:48:06.174                             : en:Chapter 16
00:49:18.664                             : en:Chapter 17
00:52:25.809                             : en:Chapter 18
00:53:58.568                             : en:Chapter 19
00:54:34.479                             : en:Chapter 20
00:59:06.960                             : en:Chapter 21
01:01:30.645                             : en:Chapter 22
01:04:40.751                             : en:Chapter 23
01:07:25.249                             : en:Chapter 24
01:09:31.333                             : en:Chapter 25
01:10:54.833                             : en:Chapter 26
01:12:04.903                             : en:Chapter 27
01:15:03.040                             : en:Chapter 28
01:17:30.062                             : en:Chapter 29
01:18:04.846                             : en:Chapter 30
01:19:21.840                             : en:Chapter 31
01:19:48.116                             : en:Chapter 32
01:22:24.940                             : en:Chapter 33
01:29:00.084                             : en:Chapter 34



                                                                                                                                                                                                        
                                                                                                                                                                                                                                                                                                                                                                                                                                                                                                                                                                                                                                                                                                                                                                                                                                                       a2d120ac569272c0021f2a88a0004a5c.torrent (89.15 KB, 下载次数: 29)

回复

使用道具 举报

小黑屋|磁力链接吧 |网站地图

本网站所有资源来自网络,如无意中侵犯了您的权益,请发邮件至 [email protected],立即清除相关链接

GMT+8, 2020-3-31 08:22 , Processed in 0.171198 second(s), 23 queries .

Powered by Discuz! X3.2

© 2001-2013 Comsenz Inc.

快速回复 返回顶部 返回列表