磁力链接吧

 找回密码
 立即注册
搜索

爱宠大机密2/Pet Pet当家2 The.Secret.Life.of.Pets.2.2019.1080p.3D.1080p...

[复制链接]
百度云资源 发表于 2019-10-5 02:55:21 | 显示全部楼层 |阅读模式


帖子完整标题:爱宠大机密2/Pet Pet当家2 The.Secret.Life.of.Pets.2.2019.1080p.3D.1080p.BluRay.Half-SBS.x264.TrueHD.7.1.Atmos-FGT 13.60GB




◎译  名 爱宠大机密2 / Pet Pet当家2(港) / 宠物当家2(台) / 宠物的秘密生活2
◎片  名 The Secret Life of Pets 2
◎年  代 2019
◎产  地 美国
◎类  别 喜剧 / 动画 / 冒险
◎语  言 英语
◎上映日期 2019-06-07(美国) / 2019-07-05(中国大陆)
◎IMDb评分  6.5/10 from 12078 users
◎片  长 86分钟
◎导  演 克里斯·雷纳德 Chris Renaud
◎编  剧 布莱恩·林奇 Brian Lynch
◎主  演 帕顿·奥斯瓦尔特 Patton Oswalt
       凯文·哈特 Kevin Hart
       哈里森·福特 Harrison Ford
       艾瑞克·斯通斯崔特 Eric Stonestreet
       珍妮·斯蕾特 Jenny Slate
       蒂凡尼·哈迪斯 Tiffany Haddish
       蕾克·贝尔 Lake Bell
       达纳·卡维 Dana Carvey
       鲍比·莫尼汉 Bobby Moynihan
       汉尼拔·布勒斯 Hannibal Buress
       克里斯·雷纳德 Chris Renaud
       艾丽·坎伯尔 Ellie Kemper
       皮特·霍尔姆斯 Pete Holmes
       尼克·克罗尔 Nick Kroll
       肖恩·吉布朗尼 Sean Giambrone
       梅雷迪斯·萨拉格尔 Meredith Salenger
       迈克尔·贝亚蒂 Michael Beattie
       大卫·阿克德 David Acord
       斯科特·摩西尔 Scott Mosier
       杰米·卡米尔 Jaime Camil
       拉瑞恩·纽曼 Laraine Newman
       布莱恩·T·德莱尼 Brian T. Delaney
       杰西卡·迪西可 Jessica Di Cicco
       桑德拉·艾切维里亚 Sandra Echeverría
       加斯·詹宁斯 Garth Jennings
       塔拉·斯特朗 Tara Strong
       弗雷德·塔特西奥 Fred Tatasciore
       约翰·卡西尔 John Kassir
       斯科特·门维尔 Scott Menville
       马修·伍德 Matthew Wood


◎标  签 动画 | 宠物 | 喜剧 | 美国 | 搞笑 | 萌 | 2019 | 动物

◎简  介  

  《爱宠大机密2》将延续2016年夏天轰动一时的《爱宠大机密》的故事,讲述宠物在我们每天离家工作或上学后的生活。照明娱乐创始人兼首席执行官克里斯·梅勒丹德利和他长久以来的合作伙伴珍娜·海莉将共同制作这部续集。《爱宠大机密》是当时开画成绩最好的原创电影,不论是动画片还是其他类型。
  《爱宠大机密2》继续由布莱恩·林奇(《小黄人大眼萌》)编剧,并再一次由克里斯·雷纳德(《神偷奶爸》系列,《老雷斯的故事》)执导。
Video
ID                                       : 1
Format                                   : AVC
Format/Info                              : Advanced Video Codec
Format settings                          : CABAC / 3 Ref Frames
Format settings, CABAC                   : Yes
Format settings, Reference frames        : 3 frames
Codec ID                                 : V_MPEG4/ISO/AVC
Duration                                 : 1 h 26 min
Bit rate                                 : 15.5 Mb/s
Width                                    : 1 920 pixels
Height                                   : 1 080 pixels
Display aspect ratio                     : 16:9
Frame rate mode                          : Constant
Frame rate                               : 23.976 (24000/1001) FPS
Color space                              : YUV
Chroma subsampling                       : 4:2:0
Bit depth                                : 8 bits
Scan type                                : Progressive
Bits/(Pixel*Frame)                       : 0.312
Stream size                              : 9.02 GiB (66%)
Title                                    : The.Secret.Life.of.Pets.2.2019.1080p.3D.1080p.BluRay.Half-SBS.x264.TrueHD.7.1.Atmos-FGT
Writing library                          : x264 core 148
Encoding settings                        : cabac=1 / ref=3 / deblock=1:-1:-1 / analyse=0x3:0 / me=hex / subme=5 / psy=1 / psy_rd=1.00:0.00 / mixed_ref=0 / me_range=16 / chroma_me=1 / trellis=1 / 8x8dct=1 / cqm=0 / deadzone=21,11 / fast_pskip=0 / chroma_qp_offset=0 / threads=24 / lookahead_threads=6 / sliced_threads=0 / nr=0 / decimate=1 / interlaced=0 / bluray_compat=0 / constrained_intra=0 / bframes=2 / b_pyramid=0 / b_adapt=1 / b_bias=0 / direct=1 / weightb=0 / open_gop=0 / weightp=0 / keyint=24 / keyint_min=2 / scenecut=40 / intra_refresh=0 / rc=abr / mbtree=0 / bitrate=15500 / ratetol=1.0 / qcomp=0.60 / qpmin=0 / qpmax=69 / qpstep=4 / ip_ratio=1.40 / pb_ratio=1.30 / aq=1:1.00
Default                                  : Yes
Forced                                   : No
Color range                              : Limited
Color primaries                          : BT.709
Transfer characteristics                 : BT.709
Matrix coefficients                      : BT.709

Audio #1
ID                                       : 2
Format                                   : MLP FBA 16-ch
Format/Info                              : Meridian Lossless Packing FBA with 16-channel presentation
Commercial name                          : Dolby TrueHD with Dolby Atmos
Codec ID                                 : A_TRUEHD
Duration                                 : 1 h 26 min
Bit rate mode                            : Variable
Bit rate                                 : 3 319 kb/s
Maximum bit rate                         : 4 647 kb/s
Channel(s)                               : 8 channels
Channel layout                           : L R C LFE Ls Rs Lb Rb
Sampling rate                            : 48.0 kHz
Frame rate                               : 1 200.000 FPS (40 SPF)
Compression mode                         : Lossless
Stream size                              : 1.99 GiB (15%)
Title                                    : The.Secret.Life.of.Pets.2.2019.1080p.3D.1080p.BluRay.Half-SBS.x264.TrueHD.7.1.Atmos-FGT
Language                                 : English
Default                                  : Yes
Forced                                   : No
Number of dynamic objects                : 11
Bed channel count                        : 1 channel
Bed channel configuration                : LFE

Audio #2
ID                                       : 3
Format                                   : AC-3
Format/Info                              : Audio Coding 3
Commercial name                          : Dolby Digital
Codec ID                                 : A_AC3
Duration                                 : 1 h 25 min
Bit rate mode                            : Constant
Bit rate                                 : 448 kb/s
Channel(s)                               : 6 channels
Channel layout                           : L R C LFE Ls Rs
Sampling rate                            : 48.0 kHz
Frame rate                               : 31.250 FPS (1536 SPF)
Bit depth                                : 16 bits
Compression mode                         : Lossy
Stream size                              : 276 MiB (2%)
Title                                    : The.Secret.Life.of.Pets.2.2019.1080p.3D.1080p.BluRay.Half-SBS.x264.TrueHD.7.1.Atmos-FGT
Language                                 : English
Service kind                             : Complete Main
Default                                  : No
Forced                                   : No

Audio #3
ID                                       : 4
Format                                   : E-AC-3
Format/Info                              : Enhanced AC-3
Commercial name                          : Dolby Digital Plus
Format profile                           : Blu-ray Disc
Codec ID                                 : A_EAC3
Duration                                 : 1 h 26 min
Bit rate mode                            : Constant
Bit rate                                 : 768 kb/s
Channel(s)                               : 8 channels
Channel layout                           : L R C LFE Ls Rs Lb Rb
Sampling rate                            : 48.0 kHz
Frame rate                               : 31.250 FPS (1536 SPF)
Compression mode                         : Lossy
Stream size                              : 473 MiB (3%)
Title                                    : The.Secret.Life.of.Pets.2.2019.1080p.3D.1080p.BluRay.Half-SBS.x264.TrueHD.7.1.Atmos-FGT
Language                                 : Spanish
Service kind                             : Complete Main
Default                                  : No
Forced                                   : No

Audio #4
ID                                       : 5
Format                                   : E-AC-3
Format/Info                              : Enhanced AC-3
Commercial name                          : Dolby Digital Plus
Format profile                           : Blu-ray Disc
Codec ID                                 : A_EAC3
Duration                                 : 1 h 26 min
Bit rate mode                            : Constant
Bit rate                                 : 768 kb/s
Channel(s)                               : 8 channels
Channel layout                           : L R C LFE Ls Rs Lb Rb
Sampling rate                            : 48.0 kHz
Frame rate                               : 31.250 FPS (1536 SPF)
Compression mode                         : Lossy
Stream size                              : 473 MiB (3%)
Title                                    : The.Secret.Life.of.Pets.2.2019.1080p.3D.1080p.BluRay.Half-SBS.x264.TrueHD.7.1.Atmos-FGT
Language                                 : Portuguese
Service kind                             : Complete Main
Default                                  : No
Forced                                   : No

Audio #5
ID                                       : 6
Format                                   : AC-3
Format/Info                              : Audio Coding 3
Commercial name                          : Dolby Digital
Codec ID                                 : A_AC3
Duration                                 : 1 h 26 min
Bit rate mode                            : Constant
Bit rate                                 : 640 kb/s
Channel(s)                               : 6 channels
Channel layout                           : L R C LFE Ls Rs
Sampling rate                            : 48.0 kHz
Frame rate                               : 31.250 FPS (1536 SPF)
Bit depth                                : 16 bits
Compression mode                         : Lossy
Stream size                              : 394 MiB (3%)
Title                                    : The.Secret.Life.of.Pets.2.2019.1080p.3D.1080p.BluRay.Half-SBS.x264.TrueHD.7.1.Atmos-FGT
Language                                 : Thai
Service kind                             : Complete Main
Default                                  : No
Forced                                   : No

Audio #6
ID                                       : 7
Format                                   : E-AC-3
Format/Info                              : Enhanced AC-3
Commercial name                          : Dolby Digital Plus
Format profile                           : Blu-ray Disc
Codec ID                                 : A_EAC3
Duration                                 : 1 h 26 min
Bit rate mode                            : Constant
Bit rate                                 : 768 kb/s
Channel(s)                               : 8 channels
Channel layout                           : L R C LFE Ls Rs Lb Rb
Sampling rate                            : 48.0 kHz
Frame rate                               : 31.250 FPS (1536 SPF)
Compression mode                         : Lossy
Stream size                              : 473 MiB (3%)
Title                                    : The.Secret.Life.of.Pets.2.2019.1080p.3D.1080p.BluRay.Half-SBS.x264.TrueHD.7.1.Atmos-FGT
Language                                 : Chinese
Service kind                             : Complete Main
Default                                  : No
Forced                                   : No

Audio #7
ID                                       : 8
Format                                   : E-AC-3
Format/Info                              : Enhanced AC-3
Commercial name                          : Dolby Digital Plus
Format profile                           : Blu-ray Disc
Codec ID                                 : A_EAC3
Duration                                 : 1 h 26 min
Bit rate mode                            : Constant
Bit rate                                 : 768 kb/s
Channel(s)                               : 8 channels
Channel layout                           : L R C LFE Ls Rs Lb Rb
Sampling rate                            : 48.0 kHz
Frame rate                               : 31.250 FPS (1536 SPF)
Compression mode                         : Lossy
Stream size                              : 473 MiB (3%)
Title                                    : The.Secret.Life.of.Pets.2.2019.1080p.3D.1080p.BluRay.Half-SBS.x264.TrueHD.7.1.Atmos-FGT
Language                                 : Chinese
Service kind                             : Complete Main
Default                                  : No
Forced                                   : No

Text #1
ID                                       : 9
Format                                   : PGS
Muxing mode                              : zlib
Codec ID                                 : S_HDMV/PGS
Codec ID/Info                            : Picture based subtitle format used on BDs/HD-DVDs
Duration                                 : 1 h 25 min
Bit rate                                 : 61.2 kb/s
Count of elements                        : 3284
Stream size                              : 37.4 MiB (0%)
Title                                    : English-PGS
Language                                 : English
Default                                  : Yes
Forced                                   : No

Text #2
ID                                       : 10
Format                                   : PGS
Muxing mode                              : zlib
Codec ID                                 : S_HDMV/PGS
Codec ID/Info                            : Picture based subtitle format used on BDs/HD-DVDs
Duration                                 : 1 h 25 min
Bit rate                                 : 36.5 kb/s
Count of elements                        : 2178
Stream size                              : 22.3 MiB (0%)
Title                                    : Spanish-PGS
Language                                 : Spanish
Default                                  : No
Forced                                   : No

Text #3
ID                                       : 11
Format                                   : PGS
Muxing mode                              : zlib
Codec ID                                 : S_HDMV/PGS
Codec ID/Info                            : Picture based subtitle format used on BDs/HD-DVDs
Duration                                 : 1 h 24 min
Bit rate                                 : 37.5 kb/s
Count of elements                        : 2184
Stream size                              : 22.7 MiB (0%)
Title                                    : Portuguese-PGS
Language                                 : Portuguese
Default                                  : No
Forced                                   : No

Text #4
ID                                       : 12
Format                                   : PGS
Muxing mode                              : zlib
Codec ID                                 : S_HDMV/PGS
Codec ID/Info                            : Picture based subtitle format used on BDs/HD-DVDs
Duration                                 : 1 h 24 min
Bit rate                                 : 26.1 kb/s
Count of elements                        : 2160
Stream size                              : 15.8 MiB (0%)
Title                                    : Thai-PGS
Language                                 : Thai
Default                                  : No
Forced                                   : No

Text #5
ID                                       : 13
Format                                   : PGS
Muxing mode                              : zlib
Codec ID                                 : S_HDMV/PGS
Codec ID/Info                            : Picture based subtitle format used on BDs/HD-DVDs
Duration                                 : 1 h 25 min
Bit rate                                 : 27.0 kb/s
Count of elements                        : 2194
Stream size                              : 16.5 MiB (0%)
Title                                    : Chinese-PGS
Language                                 : Chinese
Default                                  : No
Forced                                   : No

Text #6
ID                                       : 14
Format                                   : PGS
Muxing mode                              : zlib
Codec ID                                 : S_HDMV/PGS
Codec ID/Info                            : Picture based subtitle format used on BDs/HD-DVDs
Duration                                 : 1 h 25 min
Bit rate                                 : 28.4 kb/s
Count of elements                        : 2228
Stream size                              : 17.4 MiB (0%)
Title                                    : Chinese-PGS
Language                                 : Chinese
Default                                  : No
Forced                                   : No

Text #7
ID                                       : 15
Format                                   : PGS
Muxing mode                              : zlib
Codec ID                                 : S_HDMV/PGS
Codec ID/Info                            : Picture based subtitle format used on BDs/HD-DVDs
Duration                                 : 1 h 20 min
Bit rate                                 : 254 b/s
Count of elements                        : 10
Stream size                              : 150 KiB (0%)
Title                                    : Spanish-FORCED-PGS
Language                                 : Spanish
Default                                  : No
Forced                                   : No

Text #8
ID                                       : 16
Format                                   : PGS
Muxing mode                              : zlib
Codec ID                                 : S_HDMV/PGS
Codec ID/Info                            : Picture based subtitle format used on BDs/HD-DVDs
Duration                                 : 1 h 20 min
Bit rate                                 : 630 b/s
Count of elements                        : 32
Stream size                              : 371 KiB (0%)
Title                                    : Portuguese-FORCED-PGS
Language                                 : Portuguese
Default                                  : No
Forced                                   : No

Text #9
ID                                       : 17
Format                                   : PGS
Muxing mode                              : zlib
Codec ID                                 : S_HDMV/PGS
Codec ID/Info                            : Picture based subtitle format used on BDs/HD-DVDs
Duration                                 : 6 min 38 s
Bit rate                                 : 5 062 b/s
Count of elements                        : 36
Stream size                              : 246 KiB (0%)
Title                                    : Chinese-FORCED-PGS
Language                                 : Chinese
Default                                  : No
Forced                                   : No

Menu
00:00:00.000                             : en:Chapter 01
00:05:34.542                             : en:Chapter 02
00:10:07.815                             : en:Chapter 03
00:13:26.305                             : en:Chapter 04
00:16:39.790                             : en:Chapter 05
00:19:56.945                             : en:Chapter 06
00:24:10.073                             : en:Chapter 07
00:28:15.735                             : en:Chapter 08
00:30:54.269                             : en:Chapter 09
00:35:15.113                             : en:Chapter 10
00:39:55.976                             : en:Chapter 11
00:45:47.327                             : en:Chapter 12
00:49:51.822                             : en:Chapter 13
00:56:54.994                             : en:Chapter 14
00:58:35.220                             : en:Chapter 15
01:02:48.931                             : en:Chapter 16
01:07:16.615                             : en:Chapter 17
01:12:48.822                             : en:Chapter 18
01:15:21.808                             : en:Chapter 19
01:18:10.018                             : en:Chapter 20



                                                                                                                                                                                                        
                                                                                                                                                                                                                                                                                                                                                                                                                                                                                                                                                                                                                                                                                                                                                                                                                                                       0e783eec0a2d7976f7f268cba45db9c8.torrent (68.6 KB, 下载次数: 5)

回复

使用道具 举报

小黑屋|磁力链接吧 |网站地图

本网站所有资源来自网络,如无意中侵犯了您的权益,请发邮件至 [email protected],立即清除相关链接

GMT+8, 2020-3-31 08:16 , Processed in 0.078732 second(s), 23 queries .

Powered by Discuz! X3.2

© 2001-2013 Comsenz Inc.

快速回复 返回顶部 返回列表