百度云资源论坛

 找回密码
 立即注册
搜索

神算 The.Magic.Touch.1992.CHINESE.1080p.BluRay.x264.DTS-FGT 9.08GB

[复制链接]
百度云资源 发表于 2019-7-4 07:49:53 | 显示全部楼层 |阅读模式


帖子完整标题:神算 The.Magic.Touch.1992.CHINESE.1080p.BluRay.x264.DTS-FGT 9.08GB




◎译  名 The Magic Touch
◎片  名 神算
◎年  代 1992
◎产  地 香港
◎类  别 喜剧 / 犯罪
◎语  言 粤语
◎上映日期 1992-01-24(香港)
◎IMDb评分  6.4/10 from 107 users
◎片  长 100 分钟
◎导  演 许冠文 Michael Hui
◎编  剧 许冠文 Michael Hui / 黄子华 Chi Wah Wong
◎主  演 许冠文 Michael Hui
      黎明 Leon Lai
      许冠英 Ricky Hui
      刘小慧 Winnie Lau
      方刚 Fong Gong
      陈晓莹 Hiu Ying Chan
      黄子华 Chi Wah Wong
      田启文 Kai Man Tin
      陈德森 Teddy Chan


◎标  签 香港 | 许冠文 | 喜剧 | 黎明 | 香港电影 | 黄子华 | 1992 | 许冠英

◎简  介  

  许怀谷(许冠文 饰)专职为人算命,但他实际上不过是预先搜集了客人的资料而且利用了客人的心理,被人称为神算。税务局局长夫人疑心丈夫有外遇前来占卜,竟然让许怀谷猜中了疑似局长情人的名字。局长遭到妻子责骂后,决定派出评税员邱浩基(黎明 饰)调查许怀谷的收入。调查期间,许因为头部受伤得了超能力,接触到别人手脚便能看到对方的将来。浩基为了升职便要求许怀谷接近商人洪森,希望能找到他瞒税的证据。开始时候洪森处处回避,当知道许怀谷是个神算后,便重金礼聘二人。浩基借此机会彻底调查洪森……
Video
ID                                       : 1
Format                                   : AVC
Format/Info                              : Advanced Video Codec
Format settings                          : CABAC / 4 Ref Frames
Format settings, CABAC                   : Yes
Format settings, ReFrames                : 4 frames
Codec ID                                 : V_MPEG4/ISO/AVC
Duration                                 : 1 h 39 min
Bit rate                                 : 11.5 Mb/s
Width                                    : 1 920 pixels
Height                                   : 1 080 pixels
Display aspect ratio                     : 16:9
Frame rate mode                          : Constant
Frame rate                               : 24.000 FPS
Color space                              : YUV
Chroma subsampling                       : 4:2:0
Bit depth                                : 8 bits
Scan type                                : Progressive
Bits/(Pixel*Frame)                       : 0.231
Stream size                              : 8.02 GiB (88%)
Title                                    : The.Magic.Touch.1992.CHINESE.1080p.BluRay.x264.DTS-FGT
Writing library                          : x264 core 148 r2795M aaa9aa8
Encoding settings                        : cabac=1 / ref=4 / deblock=1:-2:-2 / analyse=0x3:0x113 / me=umh / subme=9 / psy=1 / psy_rd=1.00:0.15 / mixed_ref=1 / me_range=16 / chroma_me=1 / trellis=2 / 8x8dct=1 / cqm=0 / deadzone=21,11 / fast_pskip=1 / chroma_qp_offset=-3 / threads=24 / lookahead_threads=3 / sliced_threads=0 / nr=0 / decimate=1 / interlaced=0 / bluray_compat=0 / constrained_intra=0 / bframes=3 / b_pyramid=2 / b_adapt=1 / b_bias=0 / direct=3 / weightb=1 / open_gop=0 / weightp=2 / keyint=250 / keyint_min=25 / scenecut=40 / intra_refresh=0 / rc_lookahead=50 / rc=2pass / mbtree=1 / bitrate=11500 / ratetol=1.0 / qcomp=0.60 / qpmin=0 / qpmax=69 / qpstep=4 / cplxblur=20.0 / qblur=0.5 / vbv_maxrate=31250 / vbv_bufsize=31250 / nal_hrd=none / filler=0 / ip_ratio=1.40 / aq=1:1.00
Language                                 : Chinese
Default                                  : Yes
Forced                                   : No

Audio
ID                                       : 2
Format                                   : DTS
Format/Info                              : Digital Theater Systems
Codec ID                                 : A_DTS
Duration                                 : 1 h 39 min
Bit rate mode                            : Constant
Bit rate                                 : 1 509 kb/s
Channel(s)                               : 2 channels
Channel layout                           : L R
Sampling rate                            : 48.0 kHz
Frame rate                               : 93.750 FPS (512 SPF)
Bit depth                                : 16 bits
Compression mode                         : Lossy
Stream size                              : 1.05 GiB (12%)
Title                                    : The.Magic.Touch.1992.CHINESE.1080p.BluRay.x264.DTS-FGT
Language                                 : Chinese
Default                                  : Yes
Forced                                   : No

Text
ID                                       : 3
Format                                   : UTF-8
Codec ID                                 : S_TEXT/UTF8
Codec ID/Info                            : UTF-8 Plain Text
Duration                                 : 1 h 36 min
Bit rate                                 : 57 b/s
Count of elements                        : 1698
Stream size                              : 40.9 KiB (0%)
Language                                 : English
Default                                  : Yes
Forced                                   : No

Menu
00:00:00.000                             : en:Chapter 01
00:09:46.708                             : en:Chapter 02
00:21:59.125                             : en:Chapter 03
00:30:56.000                             : en:Chapter 04
00:35:33.167                             : en:Chapter 05
00:42:04.875                             : en:Chapter 06
00:54:18.250                             : en:Chapter 07
01:00:32.500                             : en:Chapter 08
01:10:59.125                             : en:Chapter 09
01:17:51.667                             : en:Chapter 10
01:24:44.667                             : en:Chapter 11
01:34:57.333                             : en:Chapter 12



                                                                                                                                                                                                        
                                                                                                                                                                                                                                                                                                                                                                                                                                                                                                                                                                                                                                                                                                                                                                                                                                                        
3208b73ffd45e361acdf0d42cbd233ca.torrent (45.92 KB, 下载次数: 5)

回复

使用道具 举报

小黑屋|磁力链接吧 |网站地图

本网站所有资源来自网络,如无意中侵犯了您的权益,请发邮件至 [email protected],立即清除相关链接

GMT+8, 2019-7-19 01:51 , Processed in 0.066368 second(s), 23 queries .

Powered by Discuz! X3.2

© 2001-2013 Comsenz Inc.

快速回复 返回顶部 返回列表