磁力链接吧

 找回密码
 立即注册
搜索

佛罗伦萨的瘟疫 The.Plague.of.Florence.1919.1080p.BluRay.x264-HANDJOB 8...

[复制链接]
百度云资源 发表于 2019-7-4 07:49:53 | 显示全部楼层 |阅读模式


帖子完整标题:佛罗伦萨的瘟疫 The.Plague.of.Florence.1919.1080p.BluRay.x264-HANDJOB 8.39GB




◎译  名 佛罗伦萨的瘟疫
◎片  名 Die Pest in Florenz
◎年  代 1919
◎产  地 德国
◎类  别 恐怖
◎语  言 德语
◎上映日期 1919-10-23(德国)
◎IMDb评分  6.5/10 from 97 users
◎片  长 101分钟
◎导  演 Otto Rippert
◎编  剧 弗里茨·朗 Fritz Lang
◎主  演 Theodor Becker
      Karl Bernhard
      Julietta Brandt
      Erner Huebsch
      Franz Knaak
      Otto Mannstaedt
      Auguste Prasch-Grevenberg
      Marga von Kierska
      Hans Waldherr
      Anders Wikman


◎标  签 德语电影 | 记号 | 瘟疫 | 1910s | 默片 | 百度盘 | 德国电影 | 德国

◎简  介  

  Suddenly appearing in Florence, an evil seductress causes Cesare, the city's ruler, and his son to both fall madly in love with her. The son, killing his father before an order to torture the woman can be carried out, then turns the city's churches into dens of sexual debauchery. Acts of evil and corruption continue unabated until the arrival of Death, who brings with her a horrible plague which she is about to loose upon the city.
Video
ID                                       : 1
Format                                   : AVC
Format/Info                              : Advanced Video Codec
Format settings                          : CABAC / 5 Ref Frames
Format settings, CABAC                   : Yes
Format settings, ReFrames                : 5 frames
Codec ID                                 : V_MPEG4/ISO/AVC
Duration                                 : 1 h 42 min
Bit rate                                 : 11.4 Mb/s
Width                                    : 1 420 pixels
Height                                   : 1 080 pixels
Display aspect ratio                     : 4:3
Frame rate mode                          : Constant
Frame rate                               : 24.000 FPS
Color space                              : YUV
Chroma subsampling                       : 4:2:0
Bit depth                                : 8 bits
Scan type                                : Progressive
Bits/(Pixel*Frame)                       : 0.311
Stream size                              : 8.20 GiB (98%)
Writing library                          : x264 core 157 r2935 545de2f
Encoding settings                        : cabac=1 / ref=5 / deblock=1:-3:-3 / analyse=0x3:0x133 / me=umh / subme=10 / psy=1 / psy_rd=1.00:0.00 / mixed_ref=1 / me_range=32 / chroma_me=1 / trellis=2 / 8x8dct=1 / cqm=0 / deadzone=21,11 / fast_pskip=0 / chroma_qp_offset=-2 / threads=18 / lookahead_threads=4 / sliced_threads=0 / nr=0 / decimate=0 / interlaced=0 / bluray_compat=0 / constrained_intra=0 / bframes=16 / b_pyramid=2 / b_adapt=2 / b_bias=0 / direct=3 / weightb=1 / open_gop=0 / weightp=2 / keyint=240 / keyint_min=24 / scenecut=40 / intra_refresh=0 / rc_lookahead=60 / rc=crf / mbtree=0 / crf=18.8 / qcomp=0.60 / qpmin=0 / qpmax=69 / qpstep=4 / vbv_maxrate=62500 / vbv_bufsize=78125 / crf_max=0.0 / nal_hrd=none / filler=0 / ip_ratio=1.40 / pb_ratio=1.30 / aq=2:1.00
Language                                 : German
Default                                  : Yes
Forced                                   : No
Color range                              : Limited
Color primaries                          : BT.709
Transfer characteristics                 : BT.709
Matrix coefficients                      : BT.709

Audio
ID                                       : 2
Format                                   : FLAC
Format/Info                              : Free Lossless Audio Codec
Codec ID                                 : A_FLAC
Duration                                 : 1 h 42 min
Bit rate mode                            : Variable
Bit rate                                 : 253 kb/s
Channel(s)                               : 2 channels
Channel layout                           : L R
Sampling rate                            : 48.0 kHz
Frame rate                               : 11.719 FPS (4096 SPF)
Bit depth                                : 16 bits
Compression mode                         : Lossless
Stream size                              : 186 MiB (2%)
Writing library                          : libFLAC 1.2.1 (UTC 2007-09-17)
Default                                  : Yes
Forced                                   : No

Text
ID                                       : 3
Format                                   : UTF-8
Codec ID                                 : S_TEXT/UTF8
Codec ID/Info                            : UTF-8 Plain Text
Duration                                 : 1 h 41 min
Bit rate                                 : 8 b/s
Count of elements                        : 153
Stream size                              : 6.17 KiB (0%)
Language                                 : English
Default                                  : Yes
Forced                                   : No

Menu
00:00:00.000                             : :Chapter 1
00:01:57.333                             : :Chapter 2
00:12:53.917                             : :Chapter 3
00:33:06.833                             : :Chapter 4
00:50:19.833                             : :Chapter 5
01:04:23.375                             : :Chapter 6
01:14:23.500                             : :Chapter 7
01:30:39.292                             : :Chapter 8



                                                                                                                                                                                                        
                                                                                                                                                                                                                                                                                                                                                                                                                                                                                                                                                                                                                                                                                                                                                                                                                                                        
b794798d07bb7b6cfe65cbf2b3d3fde7.torrent (42.51 KB, 下载次数: 16)

回复

使用道具 举报

小黑屋|磁力链接吧 |网站地图

本网站所有资源来自网络,如无意中侵犯了您的权益,请发邮件至 [email protected],立即清除相关链接

GMT+8, 2019-8-26 00:34 , Processed in 0.107198 second(s), 23 queries .

Powered by Discuz! X3.2

© 2001-2013 Comsenz Inc.

快速回复 返回顶部 返回列表