磁力链接吧

 找回密码
 立即注册
搜索

孩子与狗/男孩和他的狗 A.Boy.and.His.Dog.1975.1080p.BluRay.x264-AMIA...

[复制链接]
百度云资源 发表于 2019-7-4 07:49:53 | 显示全部楼层 |阅读模式
帖子完整标题:孩子与狗/男孩和他的狗 A.Boy.and.His.Dog.1975.1080p.BluRay.x264-AMIABLE 8.74GB




◎译  名 孩子与狗 / 男孩和他的狗
◎片  名 A Boy and His Dog
◎年  代 1975
◎产  地 美国
◎类  别 剧情 / 喜剧 / 科幻 / 惊悚
◎语  言 英语
◎上映日期 1976-04-21
◎IMDb评分  6.6/10 from 15264 users
◎片  长 91 分钟
◎导  演 L.Q. Jones
◎编  剧 Harlan Ellison / L.Q. Jones / Wayne Cruseturner
◎主  演 唐·约翰逊 Don Johnson
      苏珊·本顿 Susanne Benton
      杰森·罗巴兹 Jason Robards
      Charles McGraw


◎标  签 科幻 | 美国 | 反乌托邦 | 废土 | 荒诞 | 电影 | 美国电影 | 1975

◎简  介  

  七十年代经典科幻片。公元2024年,核战后的废土上,一个男孩Vic和他的狗Blood相依为命,他们能通过心灵感应交谈。男孩被一个女孩引诱,误入地底深处一个奇异的反乌托邦社会。最终,他需要在女孩和狗之间做出抉择……
Video
ID                                       : 1
Format                                   : AVC
Format/Info                              : Advanced Video Codec
Format settings, CABAC                   : Yes
Format settings, ReFrames                : 5 frames
Codec ID                                 : V_MPEG4/ISO/AVC
Duration                                 : 1 h 30 min
Bit rate                                 : 12.3 Mb/s
Width                                    : 1 920 pixels
Height                                   : 824 pixels
Display aspect ratio                     : 2.35:1
Frame rate mode                          : Constant
Frame rate                               : 23.976 (24000/1001) FPS
Color space                              : YUV
Chroma subsampling                       : 4:2:0
Bit depth                                : 8 bits
Scan type                                : Progressive
Bits/(Pixel*Frame)                       : 0.324
Stream size                              : 7.61 GiB (87%)
Writing library                          : x264 core 135 r2345kMod f0c1c53
Encoding settings                        : cabac=1 / ref=5 / deblock=1:-3:-3 / analyse=0x3:0x113 / me=umh / subme=8 / psy=1 / fade_compensate=0.00 / psy_rd=1.00:0.00 / mixed_ref=1 / me_range=16 / chroma_me=1 / trellis=1 / 8x8dct=1 / cqm=0 / deadzone=21,11 / fast_pskip=1 / chroma_qp_offset=-2 / threads=12 / lookahead_threads=2 / sliced_threads=0 / nr=0 / decimate=1 / interlaced=0 / bluray_compat=0 / constrained_intra=0 / bframes=3 / b_pyramid=2 / b_adapt=2 / b_bias=0 / direct=3 / weightb=1 / open_gop=0 / weightp=2 / keyint=240 / keyint_min=24 / scenecut=40 / intra_refresh=0 / rc_lookahead=50 / rc=2pass / mbtree=1 / bitrate=12308 / ratetol=1.0 / qcomp=0.60 / qpmin=0 / qpmax=69 / qpstep=4 / cplxblur=20.0 / qblur=0.5 / ip_ratio=1.40 / aq=1:1.00
Language                                 : English
Default                                  : Yes
Forced                                   : No

Audio
ID                                       : 2
Format                                   : DTS
Format/Info                              : Digital Theater Systems
Mode                                     : 16
Format settings, Endianness              : Big
Codec ID                                 : A_DTS
Duration                                 : 1 h 30 min
Bit rate mode                            : Constant
Bit rate                                 : 1 509 kb/s
Channel(s)                               : 6 channels
Channel(s)_Original                      : 2 channels
Channel positions                        : Front: L R
Sampling rate                            : 48.0 kHz
Frame rate                               : 93.750 FPS (512 spf)
Bit depth                                : 24 bits
Compression mode                         : Lossy
Stream size                              : 978 MiB (11%)
Language                                 : English
Default                                  : Yes
Forced                                   : No

Text
ID                                       : 3
Format                                   : UTF-8
Codec ID                                 : S_TEXT/UTF8
Codec ID/Info                            : UTF-8 Plain Text
Language                                 : English
Default                                  : No
Forced                                   : No

Menu
00:00:00.000                             : en:00:00:00.000
00:00:07.508                             : en:00:00:07.508
00:09:14.596                             : en:00:09:14.596
00:16:50.760                             : en:00:16:50.760
00:27:02.788                             : en:00:27:02.788
00:34:32.112                             : en:00:34:32.112
00:46:51.225                             : en:00:46:51.225
00:56:55.787                             : en:00:56:55.787
01:02:33.333                             : en:01:02:33.333
01:17:26.642                             : en:01:17:26.642
01:24:02.037                             : en:01:24:02.037



                                                                                                                                                                                                        
                                                                                                                                                                                                                                                                                                                                                                                                                                                                                                                                                                                                                                                                                                                                                                                                                                                        
903ea5c064be85cd11f1c56987c13c07.torrent (87.96 KB, 下载次数: 13)

回复

使用道具 举报

小黑屋|磁力链接吧 |网站地图

本网站所有资源来自网络,如无意中侵犯了您的权益,请发邮件至 [email protected],立即清除相关链接

GMT+8, 2019-10-20 15:36 , Processed in 0.117127 second(s), 23 queries .

Powered by Discuz! X3.2

© 2001-2013 Comsenz Inc.

快速回复 返回顶部 返回列表