磁力链接吧

 找回密码
 立即注册
搜索

良医妙药/克罗利 Extraordinary.Measures.2010.1080p.BluRay.x264-METiS 7....

[复制链接]
百度云资源 发表于 2019-7-4 07:49:53 | 显示全部楼层 |阅读模式
帖子完整标题:良医妙药/克罗利 Extraordinary.Measures.2010.1080p.BluRay.x264-METiS 7.95GB




◎译  名 良医妙药 / 克罗利 / 治愈药师 / 灵异妙药 / 爱的代价(台) / 特别措施
◎片  名 Extraordinary Measures
◎年  代 2010
◎产  地 美国
◎类  别 剧情 / 家庭
◎语  言 英语
◎上映日期 2010-01-22(美国)
◎片  长 106分钟
◎导  演 汤姆·沃恩 Tom Vaughan
◎编  剧 罗伯特·尼尔森·雅各布斯 Robert Nelson Jacobs / Geeta Anand
◎主  演 哈里森·福特 Harrison Ford
      布兰登·费舍 Brendan Fraser
      凯丽·拉塞尔 Keri Russell
      考特尼·万斯 Courtney B. Vance
      杰瑞德·哈里斯 Jared Harris
      迪·沃伦斯 Dee Wallace
      帕特里克·波查 Patrick Bauchau


◎标  签 美国 | 亲情 | 剧情 | HarrisonFord | 美国电影 | 家庭 | 2010 | BrendanFraser

◎简  介  

  本片根据真人真事改编,是美国CBS广播公司旗下电影部门制片的第一部影片。
约翰·克罗雷(布兰登·费舍 Brendan Fraser 饰)和妻子艾琳(凯丽·拉塞尔 Keri Russell 饰)育有三个子女,除大儿子之外,另两个孩子都患有庞贝氏症。在二女儿的一次并发症发作濒危抢救后,约翰冲动之下飞去了内布拉斯加大学求见庞贝氏症研究领域中的领先专家罗伯特·斯通希尔教授(哈里森·福特 Harrison Ford 饰),并许诺将成立庞贝氏研究基金,支持斯通希尔教授的研究,尽快将理论成果用于药物实践。不通人情的斯通希尔教授为约翰一家的真诚所动,决定辞职与约翰共同建立生化创业公司,致力于庞贝氏症药物的研发。为了给新公司拉投资,约翰不得不克服一系列困难,甚至频频惹恼已经极难相处的斯通希尔教授,全力以赴和死神赛跑……
Video
ID                                       : 1
Format                                   : AVC
Format/Info                              : Advanced Video Codec
Format settings                          : CABAC / 4 Ref Frames
Format settings, CABAC                   : Yes
Format settings, ReFrames                : 4 frames
Codec ID                                 : V_MPEG4/ISO/AVC
Duration                                 : 1 h 46 min
Bit rate                                 : 9 203 kb/s
Width                                    : 1 920 pixels
Height                                   : 1 040 pixels
Display aspect ratio                     : 1.85:1
Frame rate mode                          : Constant
Frame rate                               : 23.976 (24000/1001) FPS
Color space                              : YUV
Chroma subsampling                       : 4:2:0
Bit depth                                : 8 bits
Scan type                                : Progressive
Bits/(Pixel*Frame)                       : 0.192
Stream size                              : 6.67 GiB (84%)
Writing library                          : x264 core 93 r1542 5b86182
Encoding settings                        : cabac=1 / ref=4 / deblock=1:0:0 / analyse=0x3:0x133 / me=umh / subme=7 / psy=1 / psy_rd=1.00:0.00 / mixed_ref=1 / me_range=16 / chroma_me=1 / trellis=1 / 8x8dct=1 / cqm=0 / deadzone=21,11 / fast_pskip=1 / chroma_qp_offset=-2 / threads=6 / sliced_threads=0 / nr=0 / decimate=1 / interlaced=0 / constrained_intra=0 / bframes=3 / b_pyramid=2 / b_adapt=2 / b_bias=0 / direct=3 / wpredb=1 / wpredp=2 / keyint=250 / keyint_min=25 / scenecut=40 / intra_refresh=0 / rc=2pass / mbtree=0 / bitrate=9203 / ratetol=1.0 / qcomp=0.60 / qpmin=10 / qpmax=51 / qpstep=4 / cplxblur=20.0 / qblur=0.5 / ip_ratio=1.40 / pb_ratio=1.30 / aq=1:1.00
Default                                  : Yes
Forced                                   : No

Audio
ID                                       : 2
Format                                   : DTS
Format/Info                              : Digital Theater Systems
Codec ID                                 : A_DTS
Duration                                 : 1 h 46 min
Bit rate mode                            : Constant
Bit rate                                 : 1 509 kb/s
Channel(s)                               : 6 channels
Channel positions                        : Front: L C R, Side: L R, LFE
Sampling rate                            : 48.0 kHz
Frame rate                               : 93.750 FPS (512 SPF)
Bit depth                                : 24 bits
Compression mode                         : Lossy
Stream size                              : 1.12 GiB (14%)
Language                                 : English
Default                                  : Yes
Forced                                   : No

Text
ID                                       : 3
Format                                   : UTF-8
Codec ID                                 : S_TEXT/UTF8
Codec ID/Info                            : UTF-8 Plain Text
Language                                 : English
Default                                  : Yes
Forced                                   : No



                                                                                                                                                                                                        
                                                                                                                                                                                                                                                                                                                                                                                                                                                                                                                                                                                                                                                                                                                                                                                                                                                        
1585b839af3f6111e05287a33a9d60c3.torrent (79.96 KB, 下载次数: 12)

回复

使用道具 举报

小黑屋|磁力链接吧 |网站地图

本网站所有资源来自网络,如无意中侵犯了您的权益,请发邮件至 [email protected],立即清除相关链接

GMT+8, 2019-9-17 12:03 , Processed in 0.065604 second(s), 23 queries .

Powered by Discuz! X3.2

© 2001-2013 Comsenz Inc.

快速回复 返回顶部 返回列表