磁力链接吧

 找回密码
 立即注册
搜索

海豹干将/特遣队出击 Navy.Seals.1990.1080p.BluRay.x264-Japhson 7.93GB

[复制链接]
百度云资源 发表于 2019-7-3 07:22:13 | 显示全部楼层 |阅读模式


帖子完整标题:海豹干将/特遣队出击 Navy.Seals.1990.1080p.BluRay.x264-Japhson 7.93GB




◎译  名 海豹干将 / 特遣队出击 / 飞虎神鹰
◎片  名 Navy Seals
◎年  代 1990
◎产  地 美国
◎类  别 动作 / 惊悚 / 冒险
◎语  言 英语 / 阿拉伯语
◎上映日期 1990-07-20
◎IMDb评分  5.5/10 from 14737 users
◎片  长 113 分钟
◎导  演 刘易斯·提革 Lewis Teague
◎编  剧 Chuck Pfarrer / 加里·戈德曼 Gary Goldman
◎主  演 迈克尔·比恩 Michael Biehn
      查理·辛 Charlie Sheen


◎标  签 战争 | 美国 | 动作 | SEALS | 特种部队 | 美国电影 | 军事 | 1990

◎简  介  

  中东情势吃紧,美国国防使出秘密武器,派遣一支无坚不摧的海陆空三枝特遣队前往支援,在执行任务过程中,特遣队发现一种致命的导弹落在一群恐怖分子手中,为了阻止恐怖分子使用导弹杀害无辜百姓,这群受过严格训练的英勇特遣队成员,无畏生命危险,要从他们手中夺回导弹。
Video
ID                                       : 1
Format                                   : AVC
Format/Info                              : Advanced Video Codec
Format settings, CABAC                   : Yes
Format settings, ReFrames                : 4 frames
Codec ID                                 : V_MPEG4/ISO/AVC
Duration                                 : 1h 53mn
Bit rate                                 : 8 478 Kbps
Width                                    : 1 920 pixels
Height                                   : 1 040 pixels
Display aspect ratio                     : 1.85:1
Frame rate mode                          : Constant
Frame rate                               : 23.976 (24000/1001) fps
Color space                              : YUV
Chroma subsampling                       : 4:2:0
Bit depth                                : 8 bits
Scan type                                : Progressive
Bits/(Pixel*Frame)                       : 0.177
Stream size                              : 6.57 GiB (83%)
Writing library                          : x264 core 67 r1165 6841c5e
Encoding settings                        : cabac=1 / ref=4 / deblock=1:-1:-1 / analyse=0x3:0x113 / me=umh / subme=7 / psy_rd=1.0:0.0 / mixed_ref=1 / me_range=16 / chroma_me=1 / trellis=2 / 8x8dct=1 / cqm=0 / deadzone=21,11 / chroma_qp_offset=-2 / threads=6 / nr=0 / decimate=1 / mbaff=0 / bframes=3 / b_pyramid=0 / b_adapt=2 / b_bias=0 / direct=3 / wpredb=1 / keyint=250 / keyint_min=25 / scenecut=40 / rc=2pass / bitrate=8478 / ratetol=1.0 / qcomp=0.60 / qpmin=10 / qpmax=51 / qpstep=4 / cplxblur=20.0 / qblur=0.5 / vbv_maxrate=50000 / vbv_bufsize=50000 / ip_ratio=1.40 / pb_ratio=1.30 / aq=1:1.00
Language                                 : English
Default                                  : Yes
Forced                                   : No

Audio
ID                                       : 2
Format                                   : DTS
Format/Info                              : Digital Theater Systems
Mode                                     : 16
Format settings, Endianness              : Big
Codec ID                                 : A_DTS
Duration                                 : 1h 53mn
Bit rate mode                            : Constant
Bit rate                                 : 1 509 Kbps
Channel(s)                               : 6 channels
Channel positions                        : Front: L C R, Side: L R, LFE
Sampling rate                            : 48.0 KHz
Frame rate                               : 93.750 fps (512 spf)
Bit depth                                : 24 bits
Compression mode                         : Lossy
Stream size                              : 1.20 GiB (15%)
Language                                 : English
Default                                  : Yes
Forced                                   : No



                                                                                                                                                                                                        
                                                                                                                                                                                                                                                                                                                                                                                                                                                                                                                                                                                                                                                                                                                                                                                                                                                        
5bdd1bcf2531917fa469ac3272f6df1b.torrent (79.79 KB, 下载次数: 3)

回复

使用道具 举报

小黑屋|磁力链接吧 |网站地图

本网站所有资源来自网络,如无意中侵犯了您的权益,请发邮件至 [email protected]com,立即清除相关链接

GMT+8, 2019-8-21 09:14 , Processed in 0.130526 second(s), 23 queries .

Powered by Discuz! X3.2

© 2001-2013 Comsenz Inc.

快速回复 返回顶部 返回列表