磁力链接吧

 找回密码
 立即注册
搜索

猛龙煞星/乔?基德 Joe.Kidd.1972.1080p.BluRay.X264-AMIABLE 8.75GB

[复制链接]
百度云资源 发表于 2019-7-3 07:22:13 | 显示全部楼层 |阅读模式


帖子完整标题:猛龙煞星/乔?基德 Joe.Kidd.1972.1080p.BluRay.X264-AMIABLE 8.75GB




◎译  名 猛龙煞星 / 乔?基德 / 独行神枪侠
◎片  名 Joe Kidd
◎年  代 1972
◎产  地 美国
◎类  别 西部
◎语  言 英语 / 西班牙语
◎上映日期 1972-01-14
◎IMDb评分  6.5/10 from 15150 users
◎片  长 88 分钟
◎导  演 约翰·斯特奇斯 John Sturges
◎编  剧 埃尔莫·伦纳德 Elmore Leonard
◎主  演 克林特·伊斯特伍德 Clint Eastwood
      罗伯特·杜瓦尔 Robert Duvall
      约翰·萨克松 John Saxon


◎标  签 西部 | 美国 | 克林特·伊斯特伍德 | 西部片 | ClintEastwood | 1972 | 美国电影 | 约翰·斯特奇斯

◎简  介  

  暂无相关剧情介绍
Video
ID                                       : 1
Format                                   : AVC
Format/Info                              : Advanced Video Codec
Format settings, CABAC                   : Yes
Format settings, ReFrames                : 5 frames
Codec ID                                 : V_MPEG4/ISO/AVC
Duration                                 : 1 h 27 min
Bit rate                                 : 12.8 Mb/s
Width                                    : 1 920 pixels
Height                                   : 816 pixels
Display aspect ratio                     : 2.35:1
Frame rate mode                          : Constant
Frame rate                               : 23.976 (24000/1001) FPS
Color space                              : YUV
Chroma subsampling                       : 4:2:0
Bit depth                                : 8 bits
Scan type                                : Progressive
Bits/(Pixel*Frame)                       : 0.341
Stream size                              : 7.65 GiB (87%)
Writing library                          : x264 core 132 r2310 76a5c3a
Encoding settings                        : cabac=1 / ref=5 / deblock=1:-3:-3 / analyse=0x3:0x113 / me=umh / subme=8 / psy=1 / psy_rd=1.00:0.00 / mixed_ref=1 / me_range=16 / chroma_me=1 / trellis=1 / 8x8dct=1 / cqm=0 / deadzone=21,11 / fast_pskip=1 / chroma_qp_offset=-2 / threads=12 / lookahead_threads=2 / sliced_threads=0 / nr=0 / decimate=1 / interlaced=0 / bluray_compat=0 / constrained_intra=0 / bframes=3 / b_pyramid=2 / b_adapt=2 / b_bias=0 / direct=3 / weightb=1 / open_gop=0 / weightp=2 / keyint=240 / keyint_min=24 / scenecut=40 / intra_refresh=0 / rc_lookahead=50 / rc=2pass / mbtree=1 / bitrate=12792 / ratetol=1.0 / qcomp=0.60 / qpmin=0 / qpmax=69 / qpstep=4 / cplxblur=20.0 / qblur=0.5 / ip_ratio=1.40 / aq=1:1.00
Language                                 : English
Default                                  : Yes
Forced                                   : No

Audio
ID                                       : 2
Format                                   : DTS
Format/Info                              : Digital Theater Systems
Mode                                     : 16
Format settings, Endianness              : Big
Codec ID                                 : A_DTS
Duration                                 : 1 h 27 min
Bit rate mode                            : Constant
Bit rate                                 : 1 509 kb/s
Channel(s)                               : 6 channels
Channel(s)_Original                      : 2 channels
Channel positions                        : Front: L R
Sampling rate                            : 48.0 kHz
Frame rate                               : 93.750 FPS (512 spf)
Bit depth                                : 24 bits
Compression mode                         : Lossy
Stream size                              : 945 MiB (11%)
Language                                 : English
Default                                  : Yes
Forced                                   : No

Text #1
ID                                       : 3
Format                                   : UTF-8
Codec ID                                 : S_TEXT/UTF8
Codec ID/Info                            : UTF-8 Plain Text
Title                                    : SDH
Language                                 : English
Default                                  : No
Forced                                   : No

Text #2
ID                                       : 4
Format                                   : UTF-8
Codec ID                                 : S_TEXT/UTF8
Codec ID/Info                            : UTF-8 Plain Text
Language                                 : English
Default                                  : No
Forced                                   : No

Menu
00:00:00.000                             : en:00:00:00.000
00:06:07.867                             : en:00:06:07.867
00:17:41.894                             : en:00:17:41.894
00:23:52.765                             : en:00:23:52.765
00:28:01.013                             : en:00:28:01.013
00:30:13.729                             : en:00:30:13.729
00:37:10.186                             : en:00:37:10.186
00:42:13.865                             : en:00:42:13.865
00:49:45.441                             : en:00:49:45.441
01:00:35.507                             : en:01:00:35.507
01:04:46.508                             : en:01:04:46.508
01:09:01.929                             : en:01:09:01.929
01:14:33.010                             : en:01:14:33.010
01:18:15.190                             : en:01:18:15.190
01:23:19.036                             : en:01:23:19.036
01:25:17.237                             : en:01:25:17.237



                                                                                                                                                                                                        
                                                                                                                                                                                                                                                                                                                                                                                                                                                                                                                                                                                                                                                                                                                                                                                                                                                        
fe6a4336e5acab00fb2724295984ccf4.torrent (87.96 KB, 下载次数: 9)

回复

使用道具 举报

小黑屋|磁力链接吧 |网站地图

本网站所有资源来自网络,如无意中侵犯了您的权益,请发邮件至 [email protected],立即清除相关链接

GMT+8, 2019-8-19 08:41 , Processed in 0.092620 second(s), 23 queries .

Powered by Discuz! X3.2

© 2001-2013 Comsenz Inc.

快速回复 返回顶部 返回列表