磁力链接吧

 找回密码
 立即注册
搜索

四重人格/さらば青春の光 Quadrophenia.1979.REMASTERED.1080p.BluRay....

[复制链接]
百度云资源 发表于 2019-7-3 07:22:13 | 显示全部楼层 |阅读模式


帖子完整标题:四重人格/さらば青春の光 Quadrophenia.1979.REMASTERED.1080p.BluRay.x264-SADPANDA 8.74GB




◎译  名 四重人格 / さらば青春の光 / 崩裂
◎片  名 Quadrophenia
◎年  代 1979
◎产  地 英国
◎类  别 剧情 / 音乐 / 犯罪
◎语  言 英语
◎上映日期 1979-05-14(戛纳电影节)
◎IMDb评分  7.3/10 from 15531 users
◎片  长 120分钟
◎导  演 佛兰克·罗丹 Franc Roddam
◎编  剧 Dave Humphries / Martin Stellman / 佛兰克·罗丹 Franc Roddam / Pete Townshend
◎主  演 菲尔·丹尼尔斯 Phil Daniels
      Leslie Ash
      斯汀 Sting


◎标  签 英国 | mods | 摇滚 | 英国电影 | 音乐 | 1970s | 60s | UK

◎简  介  

  1979年Quadrophenia(四重人格)这部由电影的上映带起了Mod的复兴。片中内容讲述了1960年代因为出生于劳工阶级的Mods,因为无法摆脱现实的桎梏,无法摆脱自己的社会阶级,以及生活当中的苦闷,真实再现了Mods的生活。
一句话评论
Hell On Wheels!
The Year Was 1964, and The Battle Was Just Beginning!
A Way Of Life [rerelease]
We are the mods, we are the mods. We are, we are, we are the mods.
幕后制作
本片由The Who监制,配乐除了使用The Who的Quadrophenia专辑当中的音乐外,还加上Mods最爱的黑人灵魂乐等乐风,Sting在当中也有饰演一角。
Video
ID                                       : 1
Format                                   : AVC
Format/Info                              : Advanced Video Codec
Format settings, CABAC                   : Yes
Format settings, ReFrames                : 4 frames
Codec ID                                 : V_MPEG4/ISO/AVC
Duration                                 : 2 h 0 min
Bit rate                                 : 8 905 kb/s
Width                                    : 1 920 pixels
Height                                   : 1 040 pixels
Display aspect ratio                     : 1.85:1
Frame rate mode                          : Constant
Frame rate                               : 23.976 (24000/1001) FPS
Color space                              : YUV
Chroma subsampling                       : 4:2:0
Bit depth                                : 8 bits
Scan type                                : Progressive
Bits/(Pixel*Frame)                       : 0.186
Stream size                              : 7.47 GiB (85%)
Writing library                          : x264 core 148 r2638 7599210
Encoding settings                        : cabac=1 / ref=4 / deblock=1:-3:-3 / analyse=0x3:0x113 / me=umh / subme=8 / psy=1 / psy_rd=1.00:0.25 / mixed_ref=1 / me_range=24 / chroma_me=1 / trellis=1 / 8x8dct=1 / cqm=0 / deadzone=21,11 / fast_pskip=1 / chroma_qp_offset=-4 / threads=12 / lookahead_threads=2 / sliced_threads=0 / nr=0 / decimate=1 / interlaced=0 / bluray_compat=0 / constrained_intra=0 / bframes=3 / b_pyramid=2 / b_adapt=2 / b_bias=0 / direct=3 / weightb=1 / open_gop=0 / weightp=2 / keyint=240 / keyint_min=24 / scenecut=40 / intra_refresh=0 / rc_lookahead=50 / rc=2pass / mbtree=1 / bitrate=8905 / ratetol=1.0 / qcomp=0.60 / qpmin=0 / qpmax=69 / qpstep=4 / cplxblur=20.0 / qblur=0.5 / vbv_maxrate=62500 / vbv_bufsize=78125 / nal_hrd=none / filler=0 / ip_ratio=1.40 / aq=1:0.50
Default                                  : Yes
Forced                                   : No

Audio
ID                                       : 2
Format                                   : DTS
Format/Info                              : Digital Theater Systems
Mode                                     : 16
Format settings, Endianness              : Big
Codec ID                                 : A_DTS
Duration                                 : 2 h 0 min
Bit rate mode                            : Constant
Bit rate                                 : 1 509 kb/s
Channel(s)                               : 6 channels
Channel positions                        : Front: L C R, Side: L R, LFE
Sampling rate                            : 48.0 kHz
Frame rate                               : 93.750 FPS (512 spf)
Bit depth                                : 24 bits
Compression mode                         : Lossy
Stream size                              : 1.27 GiB (14%)
Language                                 : English
Default                                  : Yes
Forced                                   : No

Menu
00:00:00.000                             : en:00:00:00.000
00:03:05.102                             : en:00:03:05.102
00:05:47.013                             : en:00:05:47.013
00:08:19.374                             : en:00:08:19.374
00:15:07.615                             : en:00:15:07.615
00:22:50.494                             : en:00:22:50.494
00:28:55.233                             : en:00:28:55.233
00:33:33.887                             : en:00:33:33.887
00:43:09.295                             : en:00:43:09.295
00:56:28.510                             : en:00:56:28.510
01:00:02.808                             : en:01:00:02.808
01:03:41.526                             : en:01:03:41.526
01:07:10.318                             : en:01:07:10.318
01:12:59.542                             : en:01:12:59.542
01:15:29.400                             : en:01:15:29.400
01:28:03.737                             : en:01:28:03.737
01:32:36.009                             : en:01:32:36.009
01:40:37.907                             : en:01:40:37.907
01:44:10.911                             : en:01:44:10.911
01:47:23.520                             : en:01:47:23.520
01:50:50.060                             : en:01:50:50.060
01:52:56.144                             : en:01:52:56.144
01:57:57.153                             : en:01:57:57.153



                                                                                                                                                                                                        
                                                                                                                                                                                                                                                                                                                                                                                                                                                                                                                                                                                                                                                                                                                                                                                                                                                        
3230022d31723b73b10891016f2c9ecb.torrent (87.89 KB, 下载次数: 7)

回复

使用道具 举报

小黑屋|磁力链接吧 |网站地图

本网站所有资源来自网络,如无意中侵犯了您的权益,请发邮件至 [email protected],立即清除相关链接

GMT+8, 2019-9-24 04:11 , Processed in 0.177416 second(s), 23 queries .

Powered by Discuz! X3.2

© 2001-2013 Comsenz Inc.

快速回复 返回顶部 返回列表