磁力链接吧

 找回密码
 立即注册
搜索

千惊万险/巫师 Sorcerer.1977.1080p.BluRay.x264-HD4U 8.74GB

[复制链接]
百度云资源 发表于 2019-7-3 07:22:13 | 显示全部楼层 |阅读模式


帖子完整标题:千惊万险/巫师 Sorcerer.1977.1080p.BluRay.x264-HD4U 8.74GB




◎译  名 千惊万险 / 巫师 / 魔术师
◎片  名 Sorcerer
◎年  代 1977
◎产  地 美国
◎类  别 动作 / 惊悚 / 冒险
◎语  言 英语 / 西班牙语 / 法语 / 德语
◎上映日期 1977-06-24
◎IMDb评分  7.7/10 from 14915 users
◎片  长 121分钟
◎导  演 William Friedkin
◎编  剧 Walon Green
◎主  演 Roy Scheider
      Bruno Cremer
      Francisco Rabal


◎标  签 美国 | 动作 | 惊悚 | 冒险 | 1977 | 美国电影 | 1970s | 威廉·弗莱德金

◎简  介  

  Four seedy criminal outcasts risk their lives in pursuit of redemption, both legal and moral, by driving unreliable trucks stocked with nitroglycerine through dangerous landscape to cap an oil well fire in a Central American banana republic. Featuring a trance-like score by Tangerine Dream and a visceral, astonishing performance by Roy Scheider, Friedkin's reinterpretation of Clouzot’s 1953 masterpiece is perhaps the best remake of all time and is among Friedkin’s most daring works. Three sequences alone –a chaotic car crash in Boston, the unloading of charred bodies in a Central American village, and the explosives laden trucks crossing a rickety storm-blown bridge – render Sorcerer a classic and retain their power to make audiences gasp. Released the same year as Star Wars, Friedkin's audacious masterpiece represents the braver road abandoned by the studio system.

◎获奖情况  

  第50届奥斯卡金像奖(1978)
  最佳音响(提名) Robert Knudson / 罗伯特·格拉斯 / Richard Tyler / Jean-Louis Ducarme


Video
ID                                       : 1
Format                                   : AVC
Format/Info                              : Advanced Video Codec
Format settings, CABAC                   : Yes
Format settings, ReFrames                : 4 frames
Codec ID                                 : V_MPEG4/ISO/AVC
Duration                                 : 2 h 1 min
Bit rate                                 : 8 790 kb/s
Width                                    : 1 920 pixels
Height                                   : 1 080 pixels
Display aspect ratio                     : 16:9
Frame rate mode                          : Constant
Frame rate                               : 23.976 FPS
Color space                              : YUV
Chroma subsampling                       : 4:2:0
Bit depth                                : 8 bits
Scan type                                : Progressive
Bits/(Pixel*Frame)                       : 0.177
Stream size                              : 7.28 GiB (83%)
Writing library                          : x264 core 140 r2377 1ca7bb9
Encoding settings                        : cabac=1 / ref=4 / deblock=1:0:0 / analyse=0x3:0x133 / me=umh / subme=7 / psy=1 / psy_rd=1.00:0.00 / mixed_ref=1 / me_range=16 / chroma_me=1 / trellis=1 / 8x8dct=1 / cqm=0 / deadzone=21,11 / fast_pskip=0 / chroma_qp_offset=-2 / threads=18 / lookahead_threads=3 / sliced_threads=0 / nr=0 / decimate=1 / interlaced=0 / bluray_compat=0 / constrained_intra=0 / bframes=3 / b_pyramid=2 / b_adapt=1 / b_bias=0 / direct=1 / weightb=1 / open_gop=0 / weightp=2 / keyint=250 / keyint_min=23 / scenecut=40 / intra_refresh=0 / rc_lookahead=40 / rc=2pass / mbtree=1 / bitrate=8790 / ratetol=1.0 / qcomp=0.60 / qpmin=0 / qpmax=69 / qpstep=4 / cplxblur=20.0 / qblur=0.5 / ip_ratio=1.40 / aq=1:1.00
Language                                 : English
Default                                  : Yes
Forced                                   : No

Audio
ID                                       : 2
Format                                   : DTS
Format/Info                              : Digital Theater Systems
Mode                                     : 16
Format settings, Endianness              : Big
Codec ID                                 : A_DTS
Duration                                 : 2 h 1 min
Bit rate mode                            : Constant
Bit rate                                 : 1 509 kb/s
Channel(s)                               : 6 channels
Channel positions                        : Front: L C R, Side: L R, LFE
Sampling rate                            : 48.0 kHz
Frame rate                               : 93.750 FPS (512 spf)
Bit depth                                : 24 bits
Compression mode                         : Lossy
Stream size                              : 1.28 GiB (15%)
Language                                 : English
Default                                  : Yes
Forced                                   : No

Menu
00:00:00.000                             : en:00:00:00.000
00:01:29.798                             : en:00:01:29.798
00:06:37.480                             : en:00:06:37.480
00:16:12.930                             : en:00:16:12.930
00:24:14.078                             : en:00:24:14.078
00:40:14.370                             : en:00:40:14.370
00:47:30.431                             : en:00:47:30.431
00:52:00.993                             : en:00:52:00.993
00:55:00.380                             : en:00:55:00.380
01:03:27.095                             : en:01:03:27.095
01:08:41.951                             : en:01:08:41.951
01:15:46.834                             : en:01:15:46.834
01:26:33.688                             : en:01:26:33.688
01:41:17.989                             : en:01:41:17.989
01:43:30.121                             : en:01:43:30.121
01:47:16.138                             : en:01:47:16.138
01:54:05.922                             : en:01:54:05.922
01:58:32.105                             : en:01:58:32.105



                                                                                                                                                                                                        
                                                                                                                                                                                                                                                                                                                                                                                                                                                                                                                                                                                                                                                                                                                                                                                                                                                        
15410d6606422fb9db6a1c72a7fd4f21.torrent (87.9 KB, 下载次数: 6)

回复

使用道具 举报

小黑屋|磁力链接吧 |网站地图

本网站所有资源来自网络,如无意中侵犯了您的权益,请发邮件至 [email protected],立即清除相关链接

GMT+8, 2019-11-17 14:53 , Processed in 0.137983 second(s), 23 queries .

Powered by Discuz! X3.2

© 2001-2013 Comsenz Inc.

快速回复 返回顶部 返回列表