磁力链接吧

 找回密码
 立即注册
搜索

海伦·凯勒/奇迹创造者 The.Miracle.Worker.1962.1080p.BluRay.x264-SiNNE... ...

[复制链接]
百度云资源 发表于 2019-7-3 07:22:13 | 显示全部楼层 |阅读模式


帖子完整标题:海伦·凯勒/奇迹创造者 The.Miracle.Worker.1962.1080p.BluRay.x264-SiNNERS 9.84GB




◎译  名 海伦·凯勒 / 奇迹创造者 / 奇迹缔造者 / 海伦凯勒 / 热泪心声 / 苦海奇人
◎片  名 The Miracle Worker
◎年  代 1962
◎产  地 美国
◎类  别 剧情 / 传记
◎语  言 英语 / 美国手语
◎上映日期 1962-11-29
◎IMDb评分  8.1/10 from 14596 users
◎片  长 106 分钟
◎导  演 阿瑟·佩恩 Arthur Penn
◎编  剧 威廉·吉布森 William Gibson
◎主  演 安妮·班克罗夫特 Anne Bancroft
      维克托·乔里 Victor Jory
      茵歌·斯文森 Inga Swenson
      安德鲁·普莱尼 Andrew Prine
      Kathleen Comegys
      帕蒂·杜克 Patty Duke


◎标  签 海伦·凯勒 | 励志 | 美国 | 传记 | 美国电影 | 人物传记 | 1962 | 电影

◎简  介  

  在很小的时候,一场可怕的疾病夺走了少女海伦凯勒(帕蒂·杜克 Patty Duke 饰)的视力、听力和声音,让她坠入了无边无尽的孤独和黑暗之中,看到女儿绝望痛苦的模样,海伦的父母无能为力。随着时间的推移,海伦渐渐长大,不幸的生活让她的性格变得乖张暴戾,犹如一匹无法驯服的野马。
就在此时,一位名叫安妮(安妮·班克罗夫特 Anne Bancroft 饰)的家庭教师来到了海伦的身边,尽管安妮并没有多少教学经验,但她用自己的耐心和温柔一点点融化着海伦内心的坚冰,教她体味人间万物的滋味,平常爱和亲情的温暖。在安妮的教导之下,海伦最终走出了阴影,重新获得了生活的希望。

◎获奖情况  

  第35届奥斯卡金像奖(1963)
  最佳导演(提名) 阿瑟·佩恩
  最佳女主角 安妮·班克罗夫特
  最佳女配角 帕蒂·杜克
  最佳改编剧本(提名) 威廉·吉布森
  黑白片最佳服装设计(提名) Ruth Morley


Video
ID                                       : 1
Format                                   : AVC
Format/Info                              : Advanced Video Codec
Format settings                          : CABAC / 4 Ref Frames
Format settings, CABAC                   : Yes
Format settings, RefFrames               : 4 frames
Codec ID                                 : V_MPEG4/ISO/AVC
Duration                                 : 1 h 46 min
Bit rate                                 : 11.7 Mb/s
Width                                    : 1 792 pixels
Height                                   : 1 080 pixels
Display aspect ratio                     : 5:3
Frame rate mode                          : Constant
Frame rate                               : 23.976 (24000/1001) FPS
Color space                              : YUV
Chroma subsampling                       : 4:2:0
Bit depth                                : 8 bits
Scan type                                : Progressive
Bits/(Pixel*Frame)                       : 0.252
Stream size                              : 8.52 GiB (87%)
Writing library                          : x264 core 152 r2851 ba24899
Encoding settings                        : cabac=1 / ref=4 / deblock=1:-3:-3 / analyse=0x3:0x113 / me=umh / subme=8 / psy=1 / psy_rd=1.00:0.00 / mixed_ref=1 / me_range=16 / chroma_me=1 / trellis=2 / 8x8dct=1 / cqm=0 / deadzone=21,11 / fast_pskip=0 / chroma_qp_offset=-2 / threads=18 / lookahead_threads=3 / sliced_threads=0 / nr=0 / decimate=1 / interlaced=0 / bluray_compat=0 / constrained_intra=0 / bframes=3 / b_pyramid=2 / b_adapt=1 / b_bias=0 / direct=1 / weightb=1 / open_gop=0 / weightp=2 / keyint=250 / keyint_min=23 / scenecut=40 / intra_refresh=0 / rc_lookahead=40 / rc=2pass / mbtree=1 / bitrate=11700 / ratetol=1.0 / qcomp=0.60 / qpmin=0 / qpmax=69 / qpstep=4 / cplxblur=20.0 / qblur=0.5 / ip_ratio=1.40 / aq=1:1.00
Language                                 : English
Default                                  : Yes
Forced                                   : No

Audio
ID                                       : 2
Format                                   : DTS
Format/Info                              : Digital Theater Systems
Mode                                     : 16
Format settings, Endianness              : Big
Codec ID                                 : A_DTS
Duration                                 : 1 h 46 min
Bit rate mode                            : Constant
Bit rate                                 : 1 509 kb/s
Channel(s)                               : 2 channels
Channel positions                        : Front: L R
Sampling rate                            : 48.0 kHz
Frame rate                               : 93.750 FPS (512 SPF)
Bit depth                                : 24 bits
Compression mode                         : Lossy
Stream size                              : 1.12 GiB (11%)
Language                                 : English
Default                                  : Yes
Forced                                   : No

Text
ID                                       : 3
Format                                   : UTF-8
Codec ID                                 : S_TEXT/UTF8
Codec ID/Info                            : UTF-8 Plain Text
Language                                 : English
Default                                  : No
Forced                                   : No



                                                                                                                                                                                                        
                                                                                                                                                                                                                                                                                                                                                                                                                                                                                                                                                                                                                                                                                                                                                                                                                                                        
53710df5f30f1985552722891b046e37.torrent (99.04 KB, 下载次数: 15)

回复

使用道具 举报

小黑屋|磁力链接吧 |网站地图

本网站所有资源来自网络,如无意中侵犯了您的权益,请发邮件至 [email protected],立即清除相关链接

GMT+8, 2019-11-14 03:17 , Processed in 0.158887 second(s), 23 queries .

Powered by Discuz! X3.2

© 2001-2013 Comsenz Inc.

快速回复 返回顶部 返回列表