磁力链接吧

 找回密码
 立即注册
搜索

圣餐/生人活祭 The.Sacrament.2013.1080p.BluRay.X264-Japhson 7.64GB

[复制链接]
百度云资源 发表于 2019-7-3 07:22:13 | 显示全部楼层 |阅读模式


帖子完整标题:圣餐/生人活祭 The.Sacrament.2013.1080p.BluRay.X264-Japhson 7.64GB




◎译  名 圣餐 / 生人活祭
◎片  名 The Sacrament
◎年  代 2013
◎产  地 美国
◎类  别 惊悚 / 恐怖
◎语  言 英语
◎上映日期 2014-05-01(美国)
◎IMDb评分  6.1/10 from 15457 users
◎片  长 95分钟
◎导  演 缇·威斯特 Ti West
◎编  剧 缇·威斯特 Ti West
◎主  演 艾米·西米茨 Amy Seimetz
      凯特·林恩·希尔 Kate Lyn Sheil
      乔·斯万博格 Joe Swanberg
      AJ·鲍恩 AJ Bowen
      Kentucker Audley


◎标  签 惊悚 | 美国 | 伪纪录 | 宗教 | 恐怖 | 悬疑 | 2013 | 美国电影

◎简  介  

  媒体从业人员帕特里克·卡特(肯塔克尔·德利 Kentucker Audley 饰)意外联系到了失踪许久的姐姐卡罗琳(艾米·西米茨 Amy Seimetz 饰)。卡罗琳当初曾在戒毒所治疗,如今住进了一个名为“圣伊甸园”的地方,并自称过上了乌托邦般的生活。为了弄清姐姐的下落,帕特里克和同事兼好友山姆·特纳(AJ·鲍恩 AJ Bowen 饰)、杰克·威廉姆斯(乔·斯万博格 Joe Swanberg 饰)启程前往圣伊甸园的所在地调查。这座乐园位于一个鲜为人知的隐秘所在,许许多多生活中经历痛苦和坎坷的人们,在“父亲”(吉恩·琼斯 Gene Jones 饰)的感召和抚慰下重获新生。
出于媒体人的敏感,山姆取得了和“父亲”对谈的机会,但他却从对方幽默机智的谈吐中嗅到了一丝杀气……

◎获奖情况  

  第70届威尼斯电影节(2013)
  地平线单元奖 最佳影片(提名) 缇·威斯特


Video
ID                                       : 1
Format                                   : AVC
Format/Info                              : Advanced Video Codec
Format settings, CABAC                   : Yes
Format settings, ReFrames                : 4 frames
Codec ID                                 : V_MPEG4/ISO/AVC
Duration                                 : 1 h 39 min
Bit rate                                 : 9 528 kb/s
Width                                    : 1 920 pixels
Height                                   : 1 080 pixels
Display aspect ratio                     : 16:9
Frame rate mode                          : Constant
Frame rate                               : 23.976 (24000/1001) FPS
Color space                              : YUV
Chroma subsampling                       : 4:2:0
Bit depth                                : 8 bits
Scan type                                : Progressive
Bits/(Pixel*Frame)                       : 0.192
Stream size                              : 6.45 GiB (84%)
Writing library                          : x264 core 142 r2453 ea0ca51
Encoding settings                        : cabac=1 / ref=4 / deblock=1:-1:-1 / analyse=0x3:0x113 / me=umh / subme=7 / psy=1 / psy_rd=1.00:0.00 / mixed_ref=1 / me_range=16 / chroma_me=1 / trellis=1 / 8x8dct=1 / cqm=0 / deadzone=21,11 / fast_pskip=1 / chroma_qp_offset=-2 / threads=12 / lookahead_threads=2 / sliced_threads=0 / nr=0 / decimate=1 / interlaced=0 / bluray_compat=0 / constrained_intra=0 / bframes=3 / b_pyramid=2 / b_adapt=2 / b_bias=0 / direct=3 / weightb=1 / open_gop=0 / weightp=2 / keyint=250 / keyint_min=23 / scenecut=40 / intra_refresh=0 / rc_lookahead=40 / rc=2pass / mbtree=1 / bitrate=9528 / ratetol=1.0 / qcomp=0.60 / qpmin=0 / qpmax=69 / qpstep=4 / cplxblur=20.0 / qblur=0.5 / vbv_maxrate=50000 / vbv_bufsize=50000 / nal_hrd=none / filler=0 / ip_ratio=1.40 / aq=1:1.00
Language                                 : English
Default                                  : Yes
Forced                                   : No

Audio
ID                                       : 2
Format                                   : DTS
Format/Info                              : Digital Theater Systems
Mode                                     : 16
Format settings, Endianness              : Big
Codec ID                                 : A_DTS
Duration                                 : 1 h 39 min
Bit rate mode                            : Constant
Bit rate                                 : 1 509 kb/s
Channel(s)                               : 6 channels
Channel positions                        : Front: L C R, Side: L R, LFE
Sampling rate                            : 48.0 kHz
Frame rate                               : 93.750 FPS (512 spf)
Bit depth                                : 24 bits
Compression mode                         : Lossy
Stream size                              : 1.04 GiB (14%)
Language                                 : English
Default                                  : Yes
Forced                                   : No



                                                                                                                                                                                                        
                                                                                                                                                                                                                                                                                                                                                                                                                                                                                                                                                                                                                                                                                                                                                                                                                                                        
dfb7820d395b2c94c2a8e37e30bc16e5.torrent (76.97 KB, 下载次数: 8)

回复

使用道具 举报

小黑屋|磁力链接吧 |网站地图

本网站所有资源来自网络,如无意中侵犯了您的权益,请发邮件至 [email protected],立即清除相关链接

GMT+8, 2019-8-21 09:14 , Processed in 0.092355 second(s), 23 queries .

Powered by Discuz! X3.2

© 2001-2013 Comsenz Inc.

快速回复 返回顶部 返回列表