磁力链接吧

 找回密码
 立即注册
搜索

恐怖分子的孩子 Of.Fathers.and.Sons.2017.1080p.BluRay.x264-USURY 7.65GB

[复制链接]
百度云资源 发表于 2019-7-3 07:22:13 | 显示全部楼层 |阅读模式


帖子完整标题:恐怖分子的孩子 Of.Fathers.and.Sons.2017.1080p.BluRay.x264-USURY 7.65GB




◎译  名 恐怖分子的孩子 / Kinder des Kalifats / 恶魔的育成(港) / 父子之间
◎片  名 Of Fathers and Sons
◎年  代 2017
◎产  地 德国 / 美国 / 叙利亚 / 黎巴嫩 / 荷兰 / 卡塔尔
◎类  别 纪录片
◎语  言 阿拉伯语
◎上映日期 2017-11-15(阿姆斯特丹国际纪录片节) / 2018-11-16(美国)
◎IMDb评分  7.3/10 from 1486 users
◎片  长 100分钟
◎导  演 塔拉勒·德尔基 Talal Derki
◎主  演 阿布·乌萨马 Abu Osama
      艾曼·乌萨马 Ayman Osama
      乌萨马·乌萨马 Osama Osama


◎标  签 纪录片 | 恐怖主义 | 叙利亚 | 战争 | 伊斯兰 | 奥斯卡 | 2017 | 德国

◎简  介  

  塔拉勒·德克回到了他的家乡,在那里他获得了一个激进的伊斯兰家庭的信任,并分享他们的日常生活长达两年多。他的照相机提供了一种极为罕见的洞察,了解在伊斯兰哈里发长大意味着什么。

◎获奖情况  

  第91届奥斯卡金像奖(2019)
  最佳纪录长片(提名) 塔拉勒·德尔基 / 安斯加·弗里奇 / 伊娃·凯米 / 托拜厄斯·西伯特

  第31届欧洲电影奖(2018)
  最佳纪录片(提名)

  第34届圣丹斯电影节(2018)
  评审团大奖 世界电影单元纪录片

  第34届美国独立精神奖(2019)
  最佳纪录片(提名)


Video
ID                                       : 1
Format                                   : AVC
Format/Info                              : Advanced Video Codec
Format settings                          : CABAC / 4 Ref Frames
Format settings, CABAC                   : Yes
Format settings, ReFrames                : 4 frames
Codec ID                                 : V_MPEG4/ISO/AVC
Duration                                 : 1 h 43 min
Bit rate                                 : 9 117 kb/s
Width                                    : 1 920 pixels
Height                                   : 1 040 pixels
Display aspect ratio                     : 1.85:1
Frame rate mode                          : Constant
Frame rate                               : 23.976 (24000/1001) FPS
Color space                              : YUV
Chroma subsampling                       : 4:2:0
Bit depth                                : 8 bits
Scan type                                : Progressive
Bits/(Pixel*Frame)                       : 0.190
Stream size                              : 6.57 GiB (86%)
Writing library                          : x264 core 157 r2969 d4099dd
Encoding settings                        : cabac=1 / ref=4 / deblock=1:-3:-3 / analyse=0x3:0x133 / me=umh / subme=9 / psy=1 / psy_rd=1.00:0.00 / mixed_ref=1 / me_range=16 / chroma_me=1 / trellis=2 / 8x8dct=1 / cqm=0 / deadzone=21,11 / fast_pskip=0 / chroma_qp_offset=-2 / threads=18 / lookahead_threads=1 / sliced_threads=0 / nr=0 / decimate=1 / interlaced=0 / bluray_compat=0 / constrained_intra=0 / bframes=3 / b_pyramid=2 / b_adapt=1 / b_bias=0 / direct=3 / weightb=1 / open_gop=0 / weightp=2 / keyint=240 / keyint_min=24 / scenecut=40 / intra_refresh=0 / rc_lookahead=50 / rc=2pass / mbtree=1 / bitrate=9117 / ratetol=1.0 / qcomp=0.60 / qpmin=0 / qpmax=69 / qpstep=4 / cplxblur=20.0 / qblur=0.5 / ip_ratio=1.40 / aq=1:1.00
Language                                 : English
Default                                  : Yes
Forced                                   : No

Audio
ID                                       : 2
Format                                   : DTS
Format/Info                              : Digital Theater Systems
Codec ID                                 : A_DTS
Duration                                 : 1 h 43 min
Bit rate mode                            : Constant
Bit rate                                 : 1 509 kb/s
Channel(s)                               : 6 channels
Channel layout                           : C L R Ls Rs LFE
Sampling rate                            : 48.0 kHz
Frame rate                               : 93.750 FPS (512 SPF)
Bit depth                                : 24 bits
Compression mode                         : Lossy
Stream size                              : 1.09 GiB (14%)
Language                                 : Arabic
Default                                  : Yes
Forced                                   : No

Text
ID                                       : 3
Format                                   : UTF-8
Codec ID                                 : S_TEXT/UTF8
Codec ID/Info                            : UTF-8 Plain Text
Duration                                 : 1 h 38 min
Bit rate                                 : 43 b/s
Count of elements                        : 887
Stream size                              : 31.0 KiB (0%)
Title                                    : English
Language                                 : English
Default                                  : Yes
Forced                                   : Yes

Menu
00:00:00.000                             : en:00:00:00.000
00:11:04.831                             : en:00:11:04.831
00:22:31.767                             : en:00:22:31.767
00:33:49.277                             : en:00:33:49.277
00:44:07.353                             : en:00:44:07.353
00:54:38.233                             : en:00:54:38.233
01:07:38.054                             : en:01:07:38.054
01:17:07.039                             : en:01:17:07.039
01:28:04.863                             : en:01:28:04.863
01:39:38.181                             : en:01:39:38.181



                                                                                                                                                                                                        
                                                                                                                                                                                                                                                                                                                                                                                                                                                                                                                                                                                                                                                                                                                                                                                                                                                        
f386d9ab91ef3bf5ccaf085623f4577f.torrent (39 KB, 下载次数: 1)

回复

使用道具 举报

小黑屋|磁力链接吧 |网站地图

本网站所有资源来自网络,如无意中侵犯了您的权益,请发邮件至 [email protected],立即清除相关链接

GMT+8, 2019-8-21 09:14 , Processed in 0.092587 second(s), 23 queries .

Powered by Discuz! X3.2

© 2001-2013 Comsenz Inc.

快速回复 返回顶部 返回列表