磁力链接吧

 找回密码
 立即注册
搜索

苏姆伦王妃 Sumurun.1920.1080p.BluRay.x264-BiPOLAR 7.95GB

[复制链接]
百度云资源 发表于 2019-7-3 07:22:13 | 显示全部楼层 |阅读模式


帖子完整标题:苏姆伦王妃 Sumurun.1920.1080p.BluRay.x264-BiPOLAR 7.95GB




◎译  名 苏姆伦王妃 / One Arabian Night
◎片  名 Sumurun
◎年  代 1920
◎产  地 德国
◎类  别 剧情 / 爱情 / 冒险
◎语  言 德语
◎上映日期 1920-09-01
◎IMDb评分  6.3/10 from 565 users
◎片  长 Hong Kong: 115 分钟
◎导  演 Ernst Lubitsch
◎编  剧 Hanns Kr?ly / Ernst Lubitsch
◎主  演 Pola Negri
      Paul Wegener
      Harry Liedtke
      Ernst Lubitsch


◎标  签 德国 | 默片 | 刘别谦 | 恩斯特·刘别谦 | 1920s | 德国电影 | ErnstLubitsch | 1920

◎简  介  

  暂无相关剧情介绍
Video
ID                                       : 1
Format                                   : AVC
Format/Info                              : Advanced Video Codec
Format settings                          : CABAC / 4 Ref Frames
Format settings, CABAC                   : Yes
Format settings, ReFrames                : 4 frames
Codec ID                                 : V_MPEG4/ISO/AVC
Duration                                 : 1 h 43 min
Bit rate                                 : 9 761 kb/s
Width                                    : 1 440 pixels
Height                                   : 1 080 pixels
Display aspect ratio                     : 4:3
Frame rate mode                          : Constant
Frame rate                               : 19.980 (20000/1001) FPS
Color space                              : YUV
Chroma subsampling                       : 4:2:0
Bit depth                                : 8 bits
Scan type                                : Progressive
Bits/(Pixel*Frame)                       : 0.314
Stream size                              : 7.09 GiB (89%)
Writing library                          : x264 core 157 r2969 d4099dd
Encoding settings                        : cabac=1 / ref=4 / deblock=1:-3:-3 / analyse=0x3:0x133 / me=umh / subme=9 / psy=1 / psy_rd=1.00:0.00 / mixed_ref=1 / me_range=16 / chroma_me=1 / trellis=2 / 8x8dct=1 / cqm=0 / deadzone=21,11 / fast_pskip=0 / chroma_qp_offset=-2 / threads=18 / lookahead_threads=1 / sliced_threads=0 / nr=0 / decimate=1 / interlaced=0 / bluray_compat=0 / constrained_intra=0 / bframes=3 / b_pyramid=2 / b_adapt=1 / b_bias=0 / direct=3 / weightb=1 / open_gop=0 / weightp=2 / keyint=200 / keyint_min=20 / scenecut=40 / intra_refresh=0 / rc_lookahead=50 / rc=2pass / mbtree=1 / bitrate=9761 / ratetol=1.0 / qcomp=0.60 / qpmin=0 / qpmax=69 / qpstep=4 / cplxblur=20.0 / qblur=0.5 / ip_ratio=1.40 / aq=1:1.00
Language                                 : English
Default                                  : Yes
Forced                                   : No

Audio
ID                                       : 2
Format                                   : FLAC
Format/Info                              : Free Lossless Audio Codec
Codec ID                                 : A_FLAC
Duration                                 : 1 h 43 min
Bit rate mode                            : Variable
Bit rate                                 : 1 180 kb/s
Channel(s)                               : 2 channels
Channel layout                           : L R
Sampling rate                            : 48.0 kHz
Frame rate                               : 11.719 FPS (4096 SPF)
Bit depth                                : 24 bits
Compression mode                         : Lossless
Stream size                              : 877 MiB (11%)
Writing library                          : libFLAC 1.2.1 (UTC 2007-09-17)
Default                                  : Yes
Forced                                   : No

Text
ID                                       : 3
Format                                   : UTF-8
Codec ID                                 : S_TEXT/UTF8
Codec ID/Info                            : UTF-8 Plain Text
Duration                                 : 1 h 36 min
Bit rate                                 : 3 b/s
Count of elements                        : 67
Stream size                              : 2.43 KiB (0%)
Title                                    : English
Language                                 : English
Default                                  : Yes
Forced                                   : Yes

Menu
00:00:00.000                             : en:00:00:00.000
00:00:12.012                             : en:00:00:12.012
00:01:34.511                             : en:00:01:34.511
00:11:25.476                             : en:00:11:25.476
00:16:32.450                             : en:00:16:32.450
00:31:26.468                             : en:00:31:26.468
00:42:39.849                             : en:00:42:39.849
01:03:15.417                             : en:01:03:15.417
01:16:48.562                             : en:01:16:48.562
01:25:37.341                             : en:01:25:37.341
01:31:59.931                             : en:01:31:59.931



                                                                                                                                                                                                        
                                                                                                                                                                                                                                                                                                                                                                                                                                                                                                                                                                                                                                                                                                                                                                                                                                                        
278c436d70a07364d7717007fa89b478.torrent (40.36 KB, 下载次数: 2)

回复

使用道具 举报

小黑屋|磁力链接吧 |网站地图

本网站所有资源来自网络,如无意中侵犯了您的权益,请发邮件至 [email protected],立即清除相关链接

GMT+8, 2019-9-23 05:51 , Processed in 0.100614 second(s), 23 queries .

Powered by Discuz! X3.2

© 2001-2013 Comsenz Inc.

快速回复 返回顶部 返回列表