磁力链接吧

 找回密码
 立即注册
搜索

明月几时有 Our.Time.Will.Come.2017.720p.BluRay.x264-BiPOLAR 4.38GB

[复制链接]
百度云资源 发表于 2019-7-3 06:41:51 | 显示全部楼层 |阅读模式


帖子完整标题:明月几时有 Our.Time.Will.Come.2017.720p.BluRay.x264-BiPOLAR 4.38GB




◎译  名 Our Time Will Come
◎片  名 明月几时有
◎年  代 2017
◎产  地 中国大陆 / 香港
◎类  别 剧情 / 历史 / 战争
◎语  言 粤语 / 汉语普通话 / 日语
◎上映日期 2017-06-18(上海电影节) / 2017-07-01(中国大陆)
◎IMDb评分  6.5/10 from 603 users
◎片  长 130分钟
◎导  演 许鞍华 Ann Hui
◎编  剧 何冀平 Jiping He
◎主  演 周迅 Xun Zhou
      彭于晏 Eddie Peng
      霍建华 Wallace Huo
      叶德娴 Deanie Ip
      郭涛 Tao Guo
      春夏 Chun Xia
      黄志忠 Zhi-zhong Huang
      蒋雯丽 Wenli Jiang
      梁家辉 Tony Leung
      王菀之 Ivana Wong
      吕良伟 Ray Lui
      鲍起静 Hee Ching Paw
      李灿森 Sam Lee
      梁文道 Man-tao Leung
      张兆辉 Siu-Fai Cheung
      冯淬帆 Stanley Fung
      苑琼丹 King-Tan Yuen
      唐宁 Leila Tong
      卢巧音 Candy Lo
      许鞍华 Ann Hui
      永濑正敏 Masatoshi Nagase
      森田凉花 Suzuka Morita
      廖骏雄 Chun Hung Liao
      何华超 Tony Ho
      蔡瀚亿 Babyjohn Choi
      欧锦棠 Stephen Au
      熊欣欣 Xinxin Xiong
      吴岱融 Hugo Ng Doi-Yung


◎标  签 香港 | 历史 | 抗日 | 文艺 | 战争 | 剧情 | 2017 | 中国大陆

◎简  介  

  故事发生在1940年代的香港,妙龄少女方兰(周迅 饰)和母亲(叶德娴 饰)一起过着相依为命的生活,两人将家中的二楼租住给了作家茅盾(郭涛 饰)和其太太孔德沚(蒋雯丽 饰)。方兰十分热爱茅盾的文字,在其中感受到了火热的革命热情和澎湃的民族气节,然而对于身边动荡的时局和紧张的政治氛围,方兰却知之甚少。 刘锦进(彭于晏 饰)是拥有着矫健身手的进步青年,受组织委托,他负责护送滞留在香港的一批重要文人返回大陆,茅盾一家人便在名单之列。在误打误撞之中,方兰被卷入了这一危险的行动之中,并在刘锦进的建议和鼓励之下,加入了革命队伍之中去,母女两人因此被卷入了历史的滚滚洪流之中。

◎获奖情况  

  第54届台北金马影展(2017)
  金马奖 最佳导演(提名) 许鞍华
  金马奖 最佳男配角(提名) 梁家辉
  金马奖 最佳女配角(提名) 叶德娴
  金马奖 最佳原创配乐(提名) 久石让
  金马奖 最佳剪辑(提名) 邝志良 / 雪美莲

  第37届香港电影金像奖(2018)
  最佳电影
  最佳导演 许鞍华
  最佳编剧(提名) 何冀平
  最佳女主角(提名) 周迅
  最佳女配角 叶德娴
  最佳摄影(提名) 余力为
  最佳剪接(提名) 邝志良 / 雪美莲
  最佳美术指导 利国林 / 文念中
  最佳服装造型设计(提名) 文念中 / 陈宝欣
  最佳原创电影音乐 久石让
  最佳音响效果(提名) 吴书瑶 / 杜笃之

  第20届上海国际电影节(2017)
  金爵奖(提名) 许鞍华

  第17届中国电影华表奖(2018)
  优秀故事片奖

  第12届亚洲电影大奖(2018)
  最佳导演(提名) 许鞍华
  最佳男配角(提名) 彭于晏
  最佳剪接(提名) 邝志良 / 雪美莲
  最佳原创音乐 久石让

  第18届华语电影传媒大奖(2018)
  最佳电影

  第25届北京大学生电影节(2018)
  最佳女演员奖 周迅
  评委会大奖(提名)

  第4届豆瓣电影年度榜单(2017)
  7月最受关注电影(提名)


Video
ID                                       : 1
Format                                   : AVC
Format/Info                              : Advanced Video Codec
Format settings                          : CABAC / 5 Ref Frames
Format settings, CABAC                   : Yes
Format settings, ReFrames                : 5 frames
Codec ID                                 : V_MPEG4/ISO/AVC
Duration                                 : 2 h 10 min
Bit rate                                 : 4 151 kb/s
Width                                    : 1 280 pixels
Height                                   : 536 pixels
Display aspect ratio                     : 2.40:1
Frame rate mode                          : Constant
Frame rate                               : 24.000 FPS
Color space                              : YUV
Chroma subsampling                       : 4:2:0
Bit depth                                : 8 bits
Scan type                                : Progressive
Bits/(Pixel*Frame)                       : 0.252
Stream size                              : 3.79 GiB (87%)
Writing library                          : x264 core 157 r2969 d4099dd
Encoding settings                        : cabac=1 / ref=5 / deblock=1:-3:-3 / analyse=0x3:0x133 / me=umh / subme=9 / psy=1 / psy_rd=1.00:0.00 / mixed_ref=1 / me_range=16 / chroma_me=1 / trellis=2 / 8x8dct=1 / cqm=0 / deadzone=21,11 / fast_pskip=0 / chroma_qp_offset=-2 / threads=17 / lookahead_threads=1 / sliced_threads=0 / nr=0 / decimate=1 / interlaced=0 / bluray_compat=0 / constrained_intra=0 / bframes=3 / b_pyramid=2 / b_adapt=1 / b_bias=0 / direct=3 / weightb=1 / open_gop=0 / weightp=2 / keyint=240 / keyint_min=24 / scenecut=40 / intra_refresh=0 / rc_lookahead=50 / rc=2pass / mbtree=1 / bitrate=4151 / ratetol=1.0 / qcomp=0.60 / qpmin=0 / qpmax=69 / qpstep=4 / cplxblur=20.0 / qblur=0.5 / ip_ratio=1.40 / aq=1:1.00
Language                                 : English
Default                                  : Yes
Forced                                   : No

Audio
ID                                       : 2
Format                                   : AC-3
Format/Info                              : Audio Coding 3
Commercial name                          : Dolby Digital
Codec ID                                 : A_AC3
Duration                                 : 2 h 10 min
Bit rate mode                            : Constant
Bit rate                                 : 640 kb/s
Channel(s)                               : 6 channels
Channel layout                           : L R C LFE Ls Rs
Sampling rate                            : 48.0 kHz
Frame rate                               : 31.250 FPS (1536 SPF)
Bit depth                                : 16 bits
Compression mode                         : Lossy
Stream size                              : 598 MiB (13%)
Language                                 : Chinese
Service kind                             : Complete Main
Default                                  : Yes
Forced                                   : No

Text
ID                                       : 3
Format                                   : UTF-8
Codec ID                                 : S_TEXT/UTF8
Codec ID/Info                            : UTF-8 Plain Text
Duration                                 : 2 h 4 min
Bit rate                                 : 34 b/s
Count of elements                        : 1268
Stream size                              : 31.7 KiB (0%)
Title                                    : English
Language                                 : English
Default                                  : Yes
Forced                                   : Yes

Menu
00:00:00.000                             : en:00:00:00.000
00:09:11.042                             : en:00:09:11.042
00:21:07.333                             : en:00:21:07.333
00:32:53.542                             : en:00:32:53.542
00:42:06.583                             : en:00:42:06.583
00:53:43.375                             : en:00:53:43.375
01:03:11.042                             : en:01:03:11.042
01:15:29.792                             : en:01:15:29.792
01:26:50.000                             : en:01:26:50.000
01:36:36.208                             : en:01:36:36.208
01:48:53.125                             : en:01:48:53.125
01:58:01.250                             : en:01:58:01.250



                                                                                                                                                                                                        
                                                                                                                                                                                                                                                                                                                                                                                                                                                                                                                                                                                                                                                                                                                                                                                                                                                        
d0c303bf9f3db55ff672a10e9f052d80.torrent (44.64 KB, 下载次数: 6)

回复

使用道具 举报

小黑屋|磁力链接吧 |网站地图

本网站所有资源来自网络,如无意中侵犯了您的权益,请发邮件至 [email protected],立即清除相关链接

GMT+8, 2019-8-19 08:03 , Processed in 0.080101 second(s), 23 queries .

Powered by Discuz! X3.2

© 2001-2013 Comsenz Inc.

快速回复 返回顶部 返回列表