磁力链接吧

 找回密码
 立即注册
搜索

阿拉丁历险记 Adventures.of.Aladdin.2019.1080p.BluRay.x264-GUACAMOLE 5.46GB

[复制链接]
百度云资源 发表于 2019-7-2 22:15:42 | 显示全部楼层 |阅读模式


帖子完整标题:阿拉丁历险记 Adventures.of.Aladdin.2019.1080p.BluRay.x264-GUACAMOLE 5.46GB




◎译  名 阿拉丁历险记
◎片  名 Adventures of Aladdin
◎年  代 2019
◎产  地 美国
◎类  别 奇幻 / 冒险
◎语  言 英语
◎上映日期 2019-05-10(美国)
◎IMDb评分  1.7/10 from 556 users
◎片  长 87分钟
◎导  演 Glenn Campbell
◎编  剧 Glenn Campbell / Tammy Klein
◎主  演 亚当·霍利克 Adam Hollick
      Daniel O'Reilly
      Lucia Dimitra Xypteras
      Monroe Robertson
      Naya Abou Mousa
      Havon Baraka
      Manny Zaldivar
      Lord KraVen
      Joe Roche
      Sharieff Walters
      Americus Abesamis
      Mark Sawicki
      Mark Pirro
      Mike Gaglio
      Tammy Klein


◎标  签 好像看错电影了 | 烂片 | 原来国外也爱玩蹭热度 | 碰瓷儿电影 | 无聊外国片 | 巨烂片 | 2019 | 美国

◎简  介  

  Aladdin is recruited to steal a magic lamp. But when he uses its powers to help him win the heart of the newly appointed Sultana, it opens up a whole new world of excitement and danger.
Video
ID                                       : 1
Format                                   : AVC
Format/Info                              : Advanced Video Codec
Format settings                          : CABAC / 4 Ref Frames
Format settings, CABAC                   : Yes
Format settings, ReFrames                : 4 frames
Codec ID                                 : V_MPEG4/ISO/AVC
Duration                                 : 1 h 27 min
Bit rate                                 : 8 157 kb/s
Width                                    : 1 920 pixels
Height                                   : 1 080 pixels
Display aspect ratio                     : 16:9
Frame rate mode                          : Constant
Frame rate                               : 23.976 (24000/1001) FPS
Color space                              : YUV
Chroma subsampling                       : 4:2:0
Bit depth                                : 8 bits
Scan type                                : Progressive
Bits/(Pixel*Frame)                       : 0.164
Stream size                              : 4.99 GiB (91%)
Writing library                          : x264 core 157 r2969 d4099dd
Encoding settings                        : cabac=1 / ref=4 / deblock=1:0:0 / analyse=0x3:0x113 / me=umh / subme=8 / psy=1 / psy_rd=1.00:0.00 / mixed_ref=1 / me_range=16 / chroma_me=1 / trellis=2 / 8x8dct=1 / cqm=0 / deadzone=21,11 / fast_pskip=0 / chroma_qp_offset=-2 / threads=24 / lookahead_threads=4 / sliced_threads=0 / nr=0 / decimate=1 / interlaced=0 / bluray_compat=0 / constrained_intra=0 / bframes=3 / b_pyramid=2 / b_adapt=1 / b_bias=0 / direct=1 / weightb=1 / open_gop=0 / weightp=2 / keyint=250 / keyint_min=23 / scenecut=40 / intra_refresh=0 / rc_lookahead=50 / rc=2pass / mbtree=1 / bitrate=8157 / ratetol=1.0 / qcomp=0.60 / qpmin=0 / qpmax=69 / qpstep=4 / cplxblur=20.0 / qblur=0.5 / ip_ratio=1.40 / aq=1:1.00
Default                                  : Yes
Forced                                   : No

Audio
ID                                       : 2
Format                                   : DTS
Format/Info                              : Digital Theater Systems
Codec ID                                 : A_DTS
Duration                                 : 1 h 27 min
Bit rate mode                            : Constant
Bit rate                                 : 768 kb/s
Channel(s)                               : 6 channels
Channel layout                           : C L R Ls Rs LFE
Sampling rate                            : 48.0 kHz
Frame rate                               : 93.750 FPS (512 SPF)
Bit depth                                : 24 bits
Compression mode                         : Lossy
Stream size                              : 481 MiB (9%)
Language                                 : English
Default                                  : Yes
Forced                                   : No

Menu
00:00:00.000                             : en:00:00:00.000
00:10:58.825                             : en:00:10:58.825
00:21:56.982                             : en:00:21:56.982
00:34:35.949                             : en:00:34:35.949
00:41:07.048                             : en:00:41:07.048
00:48:57.434                             : en:00:48:57.434
00:53:52.187                             : en:00:53:52.187
00:58:59.745                             : en:00:58:59.745
01:07:10.944                             : en:01:07:10.944
01:20:59.772                             : en:01:20:59.772



                                                                                                                                                                                                        
                                                                                                                                                                                                                                                                                                                                                                                                                                                                                                                                                                                                                                                                                                                                                                                                                                                        
fbe787785c0852d2ca16f82211f5bd0c.torrent (27.99 KB, 下载次数: 14)

回复

使用道具 举报

小黑屋|磁力链接吧 |网站地图

本网站所有资源来自网络,如无意中侵犯了您的权益,请发邮件至 [email protected],立即清除相关链接

GMT+8, 2019-11-20 04:35 , Processed in 0.069524 second(s), 23 queries .

Powered by Discuz! X3.2

© 2001-2013 Comsenz Inc.

快速回复 返回顶部 返回列表