磁力链接吧

 找回密码
 立即注册
搜索

不戴茶花的茶花女 The.Lady.Without.Camelias.1953.ITALIAN.1080p.BluRay....

[复制链接]
百度云资源 发表于 2019-7-2 22:15:42 | 显示全部楼层 |阅读模式


帖子完整标题:不戴茶花的茶花女 The.Lady.Without.Camelias.1953.ITALIAN.1080p.BluRay.x264-EA 9.26GB




◎译  名 不戴茶花的茶花女 / The Lady Without Camelias
◎片  名 La signora senza camelie
◎年  代 1953
◎产  地 意大利 / 法国
◎类  别 剧情
◎语  言 意大利语
◎上映日期 1953-02-26(意大利)
◎IMDb评分  7.2/10 from 1198 users
◎片  长 105 分钟
◎导  演 米开朗基罗·安东尼奥尼 Michelangelo Antonioni
◎编  剧 米开朗基罗·安东尼奥尼 Michelangelo Antonioni
◎主  演 露西娅·波塞 Lucia Bosé
      Gino Cervi
      安德烈·切齐 Andrea Checchi
      伊凡·德斯尼 Ivan Desny
      阿兰·盖音 Alain Cuny
      Anna Carena
      Enrico Glori
      Oscar Andriani
      吉赛拉·索菲约 Gisella Sofio
      Elio Steiner
      Luca Dal Fabbro


◎标  签 意大利 | 1953 | 法国 | 黑白 | 剧情 | 女性 | 爱情 | 欧洲

◎简  介  

  克雷拉(露西娅?波塞 Lucia Bosé 饰)本来是一名商店售货员,她被电影制作人格兰尼发掘后步入影坛,因其美貌而名气逐渐攀升,上映影片票房都获得了成功,不久克雷拉被迫嫁给了提携她的制作人。婚后丈夫不断干预左右克雷拉的演艺事业,并且不断使她偏离自己的电影理念。两人争吵后她终于答应丈夫出演《圣女贞德》,不料影片上映后恶评如潮。这不仅使丈夫经济陷入窘境,克雷拉也陷入痛苦。在人生低谷她遇到了基尼(安德烈?切齐 Andrea Checchi 饰),重新得到了爱情与理解,冲动之下她决意与基尼私奔,却不料对方只是想要与女明星发生一场艳遇而已。克雷拉清醒后重新思考自己的人生......
Video
ID                                       : 1
Format                                   : AVC
Format/Info                              : Advanced Video Codec
Format settings                          : CABAC / 5 Ref Frames
Format settings, CABAC                   : Yes
Format settings, ReFrames                : 5 frames
Codec ID                                 : V_MPEG4/ISO/AVC
Duration                                 : 1 h 41 min
Bit rate                                 : 12.9 Mb/s
Width                                    : 1 440 pixels
Height                                   : 1 080 pixels
Display aspect ratio                     : 4:3
Frame rate mode                          : Constant
Frame rate                               : 24.000 FPS
Color space                              : YUV
Chroma subsampling                       : 4:2:0
Bit depth                                : 8 bits
Scan type                                : Progressive
Bits/(Pixel*Frame)                       : 0.345
Stream size                              : 9.14 GiB (99%)
Writing library                          : x264 core 129 r2245 bc13772
Encoding settings                        : cabac=1 / ref=5 / deblock=1:-3:-3 / analyse=0x3:0x113 / me=umh / subme=11 / psy=1 / psy_rd=0.90:0.00 / mixed_ref=1 / me_range=32 / chroma_me=0 / trellis=2 / 8x8dct=1 / cqm=0 / deadzone=21,11 / fast_pskip=0 / chroma_qp_offset=-2 / threads=12 / lookahead_threads=2 / sliced_threads=0 / nr=0 / decimate=0 / interlaced=0 / bluray_compat=0 / constrained_intra=0 / bframes=10 / b_pyramid=2 / b_adapt=2 / b_bias=0 / direct=3 / weightb=1 / open_gop=0 / weightp=2 / keyint=230 / keyint_min=23 / scenecut=40 / intra_refresh=0 / rc=2pass / mbtree=0 / bitrate=12880 / ratetol=1.0 / qcomp=0.75 / qpmin=4 / qpmax=69 / qpstep=4 / cplxblur=20.0 / qblur=0.5 / ip_ratio=1.30 / pb_ratio=1.20 / aq=1:0.75
Language                                 : Italian
Default                                  : Yes
Forced                                   : No
Color range                              : Limited
Color primaries                          : BT.709
Transfer characteristics                 : BT.709
Matrix coefficients                      : BT.709

Audio
ID                                       : 2
Format                                   : FLAC
Format/Info                              : Free Lossless Audio Codec
Codec ID                                 : A_FLAC
Duration                                 : 1 h 41 min
Bit rate mode                            : Variable
Bit rate                                 : 177 kb/s
Channel(s)                               : 2 channels
Channel layout                           : L R
Sampling rate                            : 48.0 kHz
Frame rate                               : 11.719 FPS (4096 SPF)
Bit depth                                : 16 bits
Compression mode                         : Lossless
Stream size                              : 129 MiB (1%)
Writing library                          : libFLAC 1.2.1 (UTC 2007-09-17)
Language                                 : Italian
Default                                  : Yes
Forced                                   : No

Text
ID                                       : 3
Format                                   : UTF-8
Codec ID                                 : S_TEXT/UTF8
Codec ID/Info                            : UTF-8 Plain Text
Duration                                 : 1 h 38 min
Bit rate                                 : 73 b/s
Count of elements                        : 1361
Stream size                              : 52.8 KiB (0%)
Language                                 : English
Default                                  : Yes
Forced                                   : No

Menu
00:00:00.000                             : en:00:00:00.000
00:01:55.000                             : en:00:01:55.000
00:07:15.292                             : en:00:07:15.292
00:13:57.208                             : en:00:13:57.208
00:18:48.625                             : en:00:18:48.625
00:30:48.750                             : en:00:30:48.750
00:39:05.417                             : en:00:39:05.417
00:48:55.625                             : en:00:48:55.625
00:54:57.833                             : en:00:54:57.833
00:59:28.667                             : en:00:59:28.667
01:04:07.583                             : en:01:04:07.583
01:17:04.208                             : en:01:17:04.208
01:23:08.958                             : en:01:23:08.958
01:29:40.417                             : en:01:29:40.417
01:37:08.000                             : en:01:37:08.000



                                                                                                                                                                                                        
                                                                                                                                                                                                                                                                                                                                                                                                                                                                                                                                                                                                                                                                                                                                                                                                                                                        
024d7b8e771fd8f82470c3c53b1040e8.torrent (46.87 KB, 下载次数: 14)

回复

使用道具 举报

小黑屋|磁力链接吧 |网站地图

本网站所有资源来自网络,如无意中侵犯了您的权益,请发邮件至 [email protected],立即清除相关链接

GMT+8, 2019-8-21 10:36 , Processed in 0.073496 second(s), 23 queries .

Powered by Discuz! X3.2

© 2001-2013 Comsenz Inc.

快速回复 返回顶部 返回列表