磁力链接吧

 找回密码
 立即注册
搜索

致命冲击 Maximum.Impact.2017.1080p.BluRay.x264.DTS-FGT 9.44GB

[复制链接]
百度云资源 发表于 2019-7-2 22:15:42 | 显示全部楼层 |阅读模式


帖子完整标题:致命冲击 Maximum.Impact.2017.1080p.BluRay.x264.DTS-FGT 9.44GB




◎译  名 致命冲击 / Maximum Impact
◎片  名 Максимальный удар
◎年  代 2018
◎产  地 美国 / 俄罗斯
◎类  别 喜剧 / 动作
◎语  言 英语 / 俄语
◎上映日期 2018-09-28(美国)
◎IMDb评分  2.1/10 from 617 users
◎导  演 安德泽·巴特科维卡 Andrzej Bartkowiak
◎编  剧 罗斯·拉曼纳 Ross LaManna
◎主  演 阿列克斯·涅夫斯基 Alexander Nevsky
      丹尼·特雷霍 Danny Trejo
      汤姆·阿诺德 Tom Arnold
      胡凯莉 Kelly Hu
      马克·达卡斯考斯 Mark Dacascos
      威廉·鲍德温 William Baldwin
      阿方索·麦考利 Alphonso McAuley
      Matthias Hues
      凯斯·鲍尔斯 Keith Powers
      叶夫根尼·斯迪查金 Yevgeni Stychkin
      白灵 Ling Bai
      Georges Devdariani


◎标  签 动作电影 | 剧情 | 俄罗斯 | 2018

◎简  介  

  The US State Secretary arrives on a secret summit in Moscow, in order to dissipate the tension between the Russia-Americal relations. However the world face the threat of a World War III, when a leader on an international terrorist group organizes an assassination of the US State Secretary and kidnaps his granddaughter. Despite their differences, CIA and FSB unite to save humanity .
Video
ID                                       : 1
Format                                   : AVC
Format/Info                              : Advanced Video Codec
Format settings                          : CABAC / 4 Ref Frames
Format settings, CABAC                   : Yes
Format settings, ReFrames                : 4 frames
Codec ID                                 : V_MPEG4/ISO/AVC
Duration                                 : 1 h 50 min
Bit rate                                 : 11.5 Mb/s
Width                                    : 1 920 pixels
Height                                   : 800 pixels
Display aspect ratio                     : 2.40:1
Frame rate mode                          : Constant
Frame rate                               : 23.976 (24000/1001) FPS
Color space                              : YUV
Chroma subsampling                       : 4:2:0
Bit depth                                : 8 bits
Scan type                                : Progressive
Bits/(Pixel*Frame)                       : 0.312
Stream size                              : 8.85 GiB (94%)
Title                                    : Maximum.Impact.2017.1080p.BluRay.x264.DTS-FGT
Writing library                          : x264 core 148 r2795M aaa9aa8
Encoding settings                        : cabac=1 / ref=4 / deblock=1:-2:-2 / analyse=0x3:0x113 / me=umh / subme=9 / psy=1 / psy_rd=1.00:0.15 / mixed_ref=1 / me_range=16 / chroma_me=1 / trellis=2 / 8x8dct=1 / cqm=0 / deadzone=21,11 / fast_pskip=1 / chroma_qp_offset=-3 / threads=24 / lookahead_threads=3 / sliced_threads=0 / nr=0 / decimate=1 / interlaced=0 / bluray_compat=0 / constrained_intra=0 / bframes=3 / b_pyramid=2 / b_adapt=1 / b_bias=0 / direct=3 / weightb=1 / open_gop=0 / weightp=2 / keyint=250 / keyint_min=25 / scenecut=40 / intra_refresh=0 / rc_lookahead=50 / rc=2pass / mbtree=1 / bitrate=11500 / ratetol=1.0 / qcomp=0.60 / qpmin=0 / qpmax=69 / qpstep=4 / cplxblur=20.0 / qblur=0.5 / vbv_maxrate=31250 / vbv_bufsize=31250 / nal_hrd=none / filler=0 / ip_ratio=1.40 / aq=1:1.00
Language                                 : English
Default                                  : Yes
Forced                                   : No

Audio
ID                                       : 2
Format                                   : DTS
Format/Info                              : Digital Theater Systems
Codec ID                                 : A_DTS
Duration                                 : 1 h 50 min
Bit rate mode                            : Constant
Bit rate                                 : 768 kb/s
Channel(s)                               : 6 channels
Channel layout                           : C L R Ls Rs LFE
Sampling rate                            : 48.0 kHz
Frame rate                               : 93.750 FPS (512 SPF)
Bit depth                                : 16 bits
Compression mode                         : Lossy
Stream size                              : 605 MiB (6%)
Title                                    : Maximum.Impact.2017.1080p.BluRay.x264.DTS-FGT
Language                                 : English
Default                                  : Yes
Forced                                   : No

Menu
00:00:00.000                             : en:Chapter 01
00:03:58.738                             : en:Chapter 02
00:10:03.937                             : en:Chapter 03
00:16:06.048                             : en:Chapter 04
00:27:35.988                             : en:Chapter 05
00:41:31.823                             : en:Chapter 06
00:55:03.550                             : en:Chapter 07
01:04:10.722                             : en:Chapter 08
01:11:45.593                             : en:Chapter 09
01:26:19.549                             : en:Chapter 10
01:40:23.184                             : en:Chapter 11
01:45:33.744                             : en:Chapter 12



                                                                                                                                                                                                        
                                                                                                                                                                                                                                                                                                                                                                                                                                                                                                                                                                                                                                                                                                                                                                                                                                                        
54d43ed29bbbb516833ccdd6b6398b89.torrent (47.72 KB, 下载次数: 11)

回复

使用道具 举报

小黑屋|磁力链接吧 |网站地图

本网站所有资源来自网络,如无意中侵犯了您的权益,请发邮件至 [email protected],立即清除相关链接

GMT+8, 2019-9-23 03:12 , Processed in 0.080292 second(s), 23 queries .

Powered by Discuz! X3.2

© 2001-2013 Comsenz Inc.

快速回复 返回顶部 返回列表