磁力链接吧

 找回密码
 立即注册
搜索

总统之路/一路到底 All.the.Way.2016.1080p.BluRay.x264-ROVERS 9.89GB

[复制链接]
百度云资源 发表于 2019-7-2 22:15:42 | 显示全部楼层 |阅读模式


帖子完整标题:总统之路/一路到底 All.the.Way.2016.1080p.BluRay.x264-ROVERS 9.89GB




◎译  名 总统之路 / 一路到底
◎片  名 All the Way
◎年  代 2016
◎产  地 美国
◎类  别 剧情 / 传记 / 历史
◎语  言 英语
◎上映日期 2016-05-21(美国)
◎IMDb评分  7.3/10 from 11845 users
◎片  长 132分钟
◎导  演 杰伊·罗奇 Jay Roach
◎编  剧 Robert Schenkkan
◎主  演 布莱恩·科兰斯顿 Bryan Cranston
      安东尼·麦凯 Anthony Mackie
      梅丽莎·里奥 Melissa Leo
      布莱德利·惠特福德 Bradley Whitford
      斯蒂芬·鲁特 Stephen Root
      弗兰克·兰格拉 Frank Langella
      伊桑·菲利普斯 Ethan Phillips
      艾莎·辛德斯 Aisha Hinds
      托比·胡斯 Toby Huss
      斯宾塞·加雷特 Spencer Garrett
      杰夫·道切特 Jeff Doucette
      乔·奥康纳 Joe O'Connor
      布鲁斯·诺兹克 Bruce Nozick
      Marque Richardson II


◎标  签 美国 | 政治 | 传记 | 历史 | 剧情 | 2016 | HBO | 民权法案

◎简  介  

  “猎鹰”安东尼·麦凯将在同名百老汇舞台剧改编的影片《All The Way》中饰演马丁·路德·金。而去年因在话剧版中饰林登·约翰逊总统而获托尼奖的布莱恩·科兰斯顿则将在电影版中继续饰演此角。

◎获奖情况  

  第74届金球奖(2017)
  电视类 迷你剧/电视电影最佳男主角(提名) 布莱恩·科兰斯顿

  第68届黄金时段艾美奖(2016)
  迷你剧/电视电影 最佳电视电影(提名)
  迷你剧/电视电影 最佳男主角(提名) 布莱恩·科兰斯顿

  第69届美国导演工会奖(2017)
  最佳电视电影/迷你剧导演(提名) 杰伊·罗奇

  第23届美国演员工会奖(2017)
  电视奖 电视电影/迷你剧最佳男演员 布莱恩·科兰斯顿

  第31届美国摄影协会奖(2017)
  电视电影/迷你剧最佳摄影(提名)

  第67届美国剪辑工会奖(2017)
  迷你剧/电视电影最佳剪辑

  第7届美国评论家选择电视奖(2016)
  最佳电视电影及限定剧(提名)


Video
ID                                       : 1
Format                                   : AVC
Format/Info                              : Advanced Video Codec
Format settings, CABAC                   : Yes
Format settings, ReFrames                : 4 frames
Codec ID                                 : V_MPEG4/ISO/AVC
Duration                                 : 2h 12mn
Bit rate                                 : 9 154 Kbps
Width                                    : 1 920 pixels
Height                                   : 1 080 pixels
Display aspect ratio                     : 16:9
Frame rate mode                          : Constant
Frame rate                               : 23.976 (24000/1001) fps
Color space                              : YUV
Chroma subsampling                       : 4:2:0
Bit depth                                : 8 bits
Scan type                                : Progressive
Bits/(Pixel*Frame)                       : 0.184
Stream size                              : 8.44 GiB (86%)
Writing library                          : x264 core 148 r2705 3f5ed56
Encoding settings                        : cabac=1 / ref=4 / deblock=1:-3:-3 / analyse=0x3:0x113 / me=umh / subme=8 / psy=1 / psy_rd=1.00:0.00 / mixed_ref=1 / me_range=16 / chroma_me=1 / trellis=1 / 8x8dct=1 / cqm=0 / deadzone=21,11 / fast_pskip=1 / chroma_qp_offset=-2 / threads=24 / lookahead_threads=4 / sliced_threads=0 / nr=0 / decimate=1 / interlaced=0 / bluray_compat=0 / constrained_intra=0 / bframes=3 / b_pyramid=2 / b_adapt=2 / b_bias=0 / direct=3 / weightb=1 / open_gop=0 / weightp=2 / keyint=240 / keyint_min=24 / scenecut=40 / intra_refresh=0 / rc_lookahead=50 / rc=2pass / mbtree=1 / bitrate=9154 / ratetol=1.0 / qcomp=0.60 / qpmin=0 / qpmax=69 / qpstep=4 / cplxblur=20.0 / qblur=0.5 / ip_ratio=1.40 / aq=1:1.00
Default                                  : Yes
Forced                                   : No

Audio
ID                                       : 2
Format                                   : DTS
Format/Info                              : Digital Theater Systems
Mode                                     : 16
Format settings, Endianness              : Big
Codec ID                                 : A_DTS
Duration                                 : 2h 11mn
Bit rate mode                            : Constant
Bit rate                                 : 1 509 Kbps
Channel(s)                               : 6 channels
Channel positions                        : Front: L C R, Side: L R, LFE
Sampling rate                            : 48.0 KHz
Frame rate                               : 93.750 fps (512 spf)
Bit depth                                : 24 bits
Compression mode                         : Lossy
Stream size                              : 1.39 GiB (14%)
Language                                 : English
Default                                  : Yes
Forced                                   : No

Menu
00:00:00.000                             : en:00:00:00.000
00:10:48.231                             : en:00:10:48.231
00:21:38.088                             : en:00:21:38.088
00:31:30.055                             : en:00:31:30.055
00:41:33.032                             : en:00:41:33.032
00:50:24.146                             : en:00:50:24.146
01:00:34.339                             : en:01:00:34.339
01:10:44.949                             : en:01:10:44.949
01:19:27.680                             : en:01:19:27.680
01:31:03.166                             : en:01:31:03.166
01:44:14.457                             : en:01:44:14.457
01:55:24.000                             : en:01:55:24.000
02:07:16.629                             : en:02:07:16.629



                                                                                                                                                                                                        
                                                                                                                                                                                                                                                                                                                                                                                                                                                                                                                                                                                                                                                                                                                                                                                                                                                        
72dc3261f152713457ecde92b2100a94.torrent (99.79 KB, 下载次数: 13)

回复

使用道具 举报

小黑屋|磁力链接吧 |网站地图

本网站所有资源来自网络,如无意中侵犯了您的权益,请发邮件至 [email protected],立即清除相关链接

GMT+8, 2019-11-12 16:27 , Processed in 0.067537 second(s), 23 queries .

Powered by Discuz! X3.2

© 2001-2013 Comsenz Inc.

快速回复 返回顶部 返回列表