磁力链接吧

 找回密码
 立即注册
搜索

胜者为王/义胆风云 Billy.Bathgate.1991.1080p.BluRay.x264.DD2.0-FGT 6.30GB

[复制链接]
百度云资源 发表于 2019-7-2 22:15:42 | 显示全部楼层 |阅读模式


帖子完整标题:胜者为王/义胆风云 Billy.Bathgate.1991.1080p.BluRay.x264.DD2.0-FGT 6.30GB




◎译  名 胜者为王 / 义胆风云 / 强者为王
◎片  名 Billy Bathgate
◎年  代 1991
◎产  地 美国
◎类  别 剧情 / 动作 / 犯罪
◎语  言 英语
◎上映日期 1991-11-01
◎IMDb评分  5.9/10 from 10728 users
◎片  长 106 分钟
◎导  演 Robert Benton
◎编  剧 E·L·道科特诺 E.L. Doctorow / 汤姆·斯托帕德 Tom Stoppard
◎主  演 达斯汀·霍夫曼 Dustin Hoffman
      妮可·基德曼 Nicole Kidman
      布鲁斯·威利斯 Bruce Willis


◎标  签 美国 | NicoleKidman | 达斯汀·霍夫曼 | 黑帮 | 犯罪 | 美国电影 | 1991 | DustinHoffman

◎简  介  

  以文艺片见长的罗伯特.本顿意外地执导了这部黑社会动作片,台前幕后的阵容惊人。摄影执导是大师级的拉斯托.阿曼多斯,主演明星包括达斯廷.霍夫曼、 布鲁斯.威利斯、 尼科尔.基德曼等大牌,叫人充满期待,然而影片的实际却有点雷大雨小之感。剧情描述在30年代美国经济大萧条的时候,比利.巴盖一直想在逆境中出人头地,凭机智的脑袋成为黑道枭雄舒滋的左右手,但是江湖的险恶却也让比利经常陷入生死边缘的危机,为了活命还不得不绞尽脑汁。全片的气氛比较文艺腔,也偏向小人物奋斗史,而非帮派血战的格局。
Video
ID                                       : 1
Format                                   : AVC
Format/Info                              : Advanced Video Codec
Format settings, CABAC                   : Yes
Format settings, ReFrames                : 5 frames
Codec ID                                 : V_MPEG4/ISO/AVC
Duration                                 : 1h 46mn
Bit rate                                 : 8 079 Kbps
Width                                    : 1 920 pixels
Height                                   : 1 040 pixels
Display aspect ratio                     : 1.85:1
Frame rate mode                          : Constant
Frame rate                               : 23.976 fps
Color space                              : YUV
Chroma subsampling                       : 4:2:0
Bit depth                                : 8 bits
Scan type                                : Progressive
Bits/(Pixel*Frame)                       : 0.169
Stream size                              : 5.89 GiB (93%)
Writing library                          : x264 core 130 r2273 b3065e6
Encoding settings                        : cabac=1 / ref=5 / deblock=1:-3:-3 / analyse=0x3:0x133 / me=umh / subme=11 / psy=1 / psy_rd=1.00:0.10 / mixed_ref=1 / me_range=32 / chroma_me=1 / trellis=2 / 8x8dct=1 / cqm=0 / deadzone=21,11 / fast_pskip=1 / chroma_qp_offset=-3 / threads=6 / lookahead_threads=1 / sliced_threads=0 / nr=0 / decimate=1 / interlaced=0 / bluray_compat=0 / constrained_intra=0 / bframes=8 / b_pyramid=2 / b_adapt=2 / b_bias=0 / direct=3 / weightb=1 / open_gop=0 / weightp=2 / keyint=250 / keyint_min=23 / scenecut=40 / intra_refresh=0 / rc_lookahead=60 / rc=2pass / mbtree=1 / bitrate=8079 / ratetol=1.0 / qcomp=0.60 / qpmin=0 / qpmax=69 / qpstep=4 / cplxblur=20.0 / qblur=0.5 / ip_ratio=1.40 / aq=1:1.00
Language                                 : English
Default                                  : Yes
Forced                                   : No

Audio
ID                                       : 2
Format                                   : AC-3
Format/Info                              : Audio Coding 3
Mode extension                           : CM (complete main)
Format settings, Endianness              : Big
Codec ID                                 : A_AC3
Duration                                 : 1h 46mn
Bit rate mode                            : Constant
Bit rate                                 : 384 Kbps
Channel(s)                               : 2 channels
Channel positions                        : Front: L R
Sampling rate                            : 48.0 KHz
Bit depth                                : 16 bits
Compression mode                         : Lossy
Stream size                              : 293 MiB (5%)
Language                                 : English
Default                                  : Yes
Forced                                   : No

Text #1
ID                                       : 3
Format                                   : UTF-8
Codec ID                                 : S_TEXT/UTF8
Codec ID/Info                            : UTF-8 Plain Text
Language                                 : English
Default                                  : No
Forced                                   : No

Text #2
ID                                       : 4
Format                                   : UTF-8
Codec ID                                 : S_TEXT/UTF8
Codec ID/Info                            : UTF-8 Plain Text
Language                                 : French
Default                                  : No
Forced                                   : No

Text #3
ID                                       : 5
Format                                   : UTF-8
Codec ID                                 : S_TEXT/UTF8
Codec ID/Info                            : UTF-8 Plain Text
Language                                 : Spanish
Default                                  : No
Forced                                   : No

Text #4
ID                                       : 6
Format                                   : UTF-8
Codec ID                                 : S_TEXT/UTF8
Codec ID/Info                            : UTF-8 Plain Text
Language                                 : Portuguese
Default                                  : No
Forced                                   : No

Text #5
ID                                       : 7
Format                                   : UTF-8
Codec ID                                 : S_TEXT/UTF8
Codec ID/Info                            : UTF-8 Plain Text
Language                                 : Dutch
Default                                  : No
Forced                                   : No

Menu
00:00:00.000                             : en:Chapter 01
00:08:36.015                             : en:Chapter 02
00:15:21.879                             : en:Chapter 03
00:23:40.252                             : en:Chapter 04
00:32:08.551                             : en:Chapter 05
00:41:42.374                             : en:Chapter 06
00:49:57.828                             : en:Chapter 07
00:58:36.221                             : en:Chapter 08
01:06:51.048                             : en:Chapter 09
01:16:31.795                             : en:Chapter 10
01:28:15.581                             : en:Chapter 11
01:37:48.779                             : en:Chapter 12



                                                                                                                                                                                                        
                                                                                                                                                                                                                                                                                                                                                                                                                                                                                                                                                                                                                                                                                                                                                                                                                                                        
78b70ebd83f17c3bf9f51b8b3e5b8776.torrent (63.6 KB, 下载次数: 8)

回复

使用道具 举报

小黑屋|磁力链接吧 |网站地图

本网站所有资源来自网络,如无意中侵犯了您的权益,请发邮件至 [email protected],立即清除相关链接

GMT+8, 2019-11-12 15:54 , Processed in 0.071208 second(s), 23 queries .

Powered by Discuz! X3.2

© 2001-2013 Comsenz Inc.

快速回复 返回顶部 返回列表