磁力链接吧

 找回密码
 立即注册
搜索

致命女人香/男人走开 Bad.Girls.1994.1080p.BluRay.x264-HD4U 6.56GB

[复制链接]
百度云资源 发表于 2019-7-2 22:15:42 | 显示全部楼层 |阅读模式


帖子完整标题:致命女人香/男人走开 Bad.Girls.1994.1080p.BluRay.x264-HD4U 6.56GB




◎译  名 致命女人香 / 男人走开
◎片  名 Bad Girls
◎年  代 1994
◎产  地 美国
◎类  别 西部
◎语  言 英语
◎上映日期 1994-04-22
◎IMDb评分  5.1/10 from 10936 users
◎片  长 99 分钟
◎导  演 乔纳森·卡普兰 Jonathan Kaplan
◎编  剧 艾伯特·S·拉迪 Albert S. Ruddy / Charles Finch / Gray Frederickson / 玛德琳·斯托 Madeleine Stowe
◎主  演 玛德琳·斯托 Madeleine Stowe
      安迪·麦克道威尔 Andie MacDowell
      德鲁·巴里摩尔 Drew Barrymore
      玛丽·斯图尔特·马斯特森 Mary Stuart Masterson


◎标  签 西部 | 女性 | 美国电影 | 美国 | 动作 | 西部片 | 牛仔 | 1994

◎简  介  

  故事发生在1890年的科罗拉多州,科迪(玛德琳·斯托 Madeleine Stowe 饰)、安妮塔(玛丽·斯图尔特·马斯特森 Mary Stuart Masterson 饰)、艾琳(安迪·麦克道威尔 Andie MacDowell 饰)和莉莉(德鲁·巴里摩尔 Drew Barrymore 饰)是四位风姿绰卓的妙龄女子,因为被一位军官调戏,科迪失手将他杀死,不得不面临被绞死的命运。另外三人在处决前将科迪救下,四人就此踏上了逃亡的旅途。
祸不单行,在途中,她们又遭遇了一帮劫匪,所带的财物被洗劫一空。巧合的是,一名牛仔同样在寻找这帮劫匪企图复仇,五人一拍即合,决定联手展开复仇行动。在此过程中,科迪也和这名英俊的牛仔碰撞出了爱情的火花。
Video
ID                                       : 1
Format                                   : AVC
Format/Info                              : Advanced Video Codec
Format settings, CABAC                   : Yes
Format settings, ReFrames                : 4 frames
Muxing mode                              : Header stripping
Codec ID                                 : V_MPEG4/ISO/AVC
Duration                                 : 1h 40mn
Bit rate                                 : 8 733 Kbps
Width                                    : 1 920 pixels
Height                                   : 1 040 pixels
Display aspect ratio                     : 1.85:1
Frame rate mode                          : Constant
Frame rate                               : 23.976 fps
Color space                              : YUV
Chroma subsampling                       : 4:2:0
Bit depth                                : 8 bits
Scan type                                : Progressive
Bits/(Pixel*Frame)                       : 0.182
Stream size                              : 5.98 GiB (91%)
Writing library                          : x264 core 120 r2120 0c7dab9
Encoding settings                        : cabac=1 / ref=4 / deblock=1:0:0 / analyse=0x3:0x133 / me=umh / subme=7 / psy=1 / psy_rd=1.00:0.00 / mixed_ref=1 / me_range=16 / chroma_me=1 / trellis=1 / 8x8dct=1 / cqm=0 / deadzone=21,11 / fast_pskip=0 / chroma_qp_offset=-2 / threads=12 / sliced_threads=0 / nr=0 / decimate=1 / interlaced=0 / bluray_compat=0 / constrained_intra=0 / bframes=3 / b_pyramid=2 / b_adapt=1 / b_bias=0 / direct=1 / weightb=1 / open_gop=0 / weightp=2 / keyint=250 / keyint_min=23 / scenecut=40 / intra_refresh=0 / rc_lookahead=40 / rc=2pass / mbtree=1 / bitrate=8733 / ratetol=1.0 / qcomp=0.60 / qpmin=0 / qpmax=69 / qpstep=4 / cplxblur=20.0 / qblur=0.5 / ip_ratio=1.40 / aq=1:1.00
Language                                 : English
Default                                  : Yes
Forced                                   : No

Audio
ID                                       : 2
Format                                   : AC-3
Format/Info                              : Audio Coding 3
Mode extension                           : CM (complete main)
Format settings, Endianness              : Big
Muxing mode                              : Header stripping
Codec ID                                 : A_AC3
Duration                                 : 1h 40mn
Bit rate mode                            : Constant
Bit rate                                 : 640 Kbps
Channel(s)                               : 6 channels
Channel positions                        : Front: L C R, Side: L R, LFE
Sampling rate                            : 48.0 KHz
Frame rate                               : 31.250 fps (1536 spf)
Compression mode                         : Lossy
Stream size                              : 459 MiB (7%)
Language                                 : English
Default                                  : Yes
Forced                                   : No

Text
ID                                       : 3
Format                                   : UTF-8
Codec ID                                 : S_TEXT/UTF8
Codec ID/Info                            : UTF-8 Plain Text
Language                                 : English
Default                                  : Yes
Forced                                   : No



                                                                                                                                                                                                        
                                                                                                                                                                                                                                                                                                                                                                                                                                                                                                                                                                                                                                                                                                                                                                                                                                                        
00ebeb9b727a02f074412851af33b398.torrent (66.12 KB, 下载次数: 6)

回复

使用道具 举报

小黑屋|磁力链接吧 |网站地图

本网站所有资源来自网络,如无意中侵犯了您的权益,请发邮件至 [email protected],立即清除相关链接

GMT+8, 2019-11-22 06:08 , Processed in 0.064556 second(s), 23 queries .

Powered by Discuz! X3.2

© 2001-2013 Comsenz Inc.

快速回复 返回顶部 返回列表