磁力链接吧

 找回密码
 立即注册
搜索

和达奇回家 Dutch.1991.1080p.BluRay.x264-HD4U 6.56GB

[复制链接]
百度云资源 发表于 2019-7-2 22:15:42 | 显示全部楼层 |阅读模式


帖子完整标题:和达奇回家 Dutch.1991.1080p.BluRay.x264-HD4U 6.56GB




◎译  名 和达奇回家
◎片  名 Dutch
◎年  代 1991
◎产  地 美国
◎类  别 剧情 / 喜剧 / 冒险
◎语  言 英语
◎上映日期 1991-07-19
◎IMDb评分  6.4/10 from 10763 users
◎片  长 107 分钟
◎导  演 Peter Faiman
◎编  剧 约翰·休斯 John Hughes
◎主  演 艾德·奥尼尔 Ed O'Neill
      伊桑·恩布里 Ethan Embry
      乔贝兹·威廉姆斯 JoBeth Williams


◎标  签 美国 | CCTV6 | 在路上 成长 | 美国电影 | 喜剧 | D彼得·费曼 | 親情 | 英語片

◎简  介  

  Volunteering to drive his girl friend's son home for Thanksgiving to Chicago from his boarding school in Georgia, little does Dutch expect the picaresque adventures in store for him. When a blunt, down-to-earth construction worker takes to the road with an insufferable twelve-year-old snob (desperately insecure under the surface) who doesn't approve of him in the least, quite a bit must happen before they can reach their destination as friends-- or, for that matter, get home at all.

故事梗概:

  和丈夫离婚后,娜塔丽认识了卡车司机达奇。假期马上就要到了,由于娜塔丽的前夫瑞德要到伦敦开会,娜塔丽决定由达奇到千里之外的寄宿学校接儿子道尔回家。

  道尔聪明、身手敏捷,但却有些自闭。对于父亲不能来接自己回家,道尔感到很沮丧。但他宁愿一个人呆在空荡荡的学校里,也不愿意和一个卡车司机回家。

  达奇刚到学校道尔就给了他一个下马威。道尔用空手道将达奇掀翻在地,这下可惹恼了达奇,他强行将道尔带到车上,向家的方向开去。

  为了完成女友交给的任务,和道尔和睦相处,达奇想出很多办法。他买来焰火逗道尔开心,但道尔却并不领情,还用烟头烧坏了达奇的裤子。达奇一怒之下把道尔仍在了路边,独自开车来到了汽车旅馆。

  饥寒交迫的道尔找到了达奇,为了报复他,道尔打着了汽车并开上了路。一辆卡车将达奇的车撞得面目全非,看着达奇在报废的汽车周围焦急地寻找自己,道尔心中闪过一丝愧疚。

  汽车没有了,道尔和达奇只能搭车回家。在达奇的启发下,道尔装成患病儿童,博得了两位女士的同情。但上车之后他们才发现这两位女士竟是应召女郎。情窦初开的道尔对她们其中的一个颇有好感,但达奇知道决不能再和这两个女人坐一辆车,这将给道尔造成很不好的影响。

  应召女郎趁给车加油抛下了达奇和道尔,却带走了他们的行李钱物。这下达奇和道尔身无分文,要回家真成了大难题。无奈之下两人来到了收容所,在这里的人们的帮助下,才回到了家中。

  经历了这一路的风风雨雨,道尔接受了达奇,甚至发现自己已经离不开他了。道尔相信他将和达奇一同度过一个美好的假期。

  精彩视点:

  本片讲述了卡车司机达奇为了在假期将女友的捣蛋儿子带回家,一路上与这个人小鬼大的孩子斗智斗勇的故事。影片诙谐幽默,充满温馨。片中一些与孩子相处的方式方法也为观看影片的大人们提供了很好的参考。

  影片的导演彼得·费曼近年来并没有什么大片问世,但八十年代他导演的一部没有大明星参演的影片《鳄鱼邓肯》却取得了意想不到的效果,至今仍历历在目。影片的男主演艾德·奥尼尔曾主演过《反斗智多星》、《神秘拼图》等影片,他在本片中的表演张弛有度,十分到位。

  4月5日16:20CCTV-6
Video
ID                                       : 1
Format                                   : AVC
Format/Info                              : Advanced Video Codec
Format settings, CABAC                   : Yes
Format settings, ReFrames                : 4 frames
Muxing mode                              : Header stripping
Codec ID                                 : V_MPEG4/ISO/AVC
Duration                                 : 1 h 47 min
Bit rate                                 : 8 090 kb/s
Width                                    : 1 920 pixels
Height                                   : 1 040 pixels
Display aspect ratio                     : 1.85:1
Frame rate mode                          : Constant
Frame rate                               : 23.976 FPS
Color space                              : YUV
Chroma subsampling                       : 4:2:0
Bit depth                                : 8 bits
Scan type                                : Progressive
Bits/(Pixel*Frame)                       : 0.169
Stream size                              : 5.95 GiB (91%)
Writing library                          : x264 core 120 r2120 0c7dab9
Encoding settings                        : cabac=1 / ref=4 / deblock=1:0:0 / analyse=0x3:0x133 / me=umh / subme=7 / psy=1 / psy_rd=1.00:0.00 / mixed_ref=1 / me_range=16 / chroma_me=1 / trellis=1 / 8x8dct=1 / cqm=0 / deadzone=21,11 / fast_pskip=0 / chroma_qp_offset=-2 / threads=12 / sliced_threads=0 / nr=0 / decimate=1 / interlaced=0 / bluray_compat=0 / constrained_intra=0 / bframes=3 / b_pyramid=2 / b_adapt=1 / b_bias=0 / direct=1 / weightb=1 / open_gop=0 / weightp=2 / keyint=250 / keyint_min=23 / scenecut=40 / intra_refresh=0 / rc_lookahead=40 / rc=2pass / mbtree=1 / bitrate=8090 / ratetol=1.0 / qcomp=0.60 / qpmin=0 / qpmax=69 / qpstep=4 / cplxblur=20.0 / qblur=0.5 / ip_ratio=1.40 / aq=1:1.00
Language                                 : English
Default                                  : Yes
Forced                                   : No

Audio
ID                                       : 2
Format                                   : AC-3
Format/Info                              : Audio Coding 3
Format settings, Endianness              : Big
Muxing mode                              : Header stripping
Codec ID                                 : A_AC3
Duration                                 : 1 h 47 min
Bit rate mode                            : Constant
Bit rate                                 : 640 kb/s
Channel(s)                               : 6 channels
Channel positions                        : Front: L C R, Side: L R, LFE
Sampling rate                            : 48.0 kHz
Frame rate                               : 31.250 FPS (1536 spf)
Bit depth                                : 16 bits
Compression mode                         : Lossy
Stream size                              : 492 MiB (7%)
Language                                 : English
Service kind                             : Complete Main
Default                                  : Yes
Forced                                   : No



                                                                                                                                                                                                        
                                                                                                                                                                                                                                                                                                                                                                                                                                                                                                                                                                                                                                                                                                                                                                                                                                                        
ca4ff9b9b80f381e5b4967537d6d57c5.torrent (66.07 KB, 下载次数: 2)

回复

使用道具 举报

小黑屋|磁力链接吧 |网站地图

本网站所有资源来自网络,如无意中侵犯了您的权益,请发邮件至 [email protected],立即清除相关链接

GMT+8, 2019-11-21 10:41 , Processed in 0.069160 second(s), 23 queries .

Powered by Discuz! X3.2

© 2001-2013 Comsenz Inc.

快速回复 返回顶部 返回列表