磁力链接吧

 找回密码
 立即注册
搜索

疯狂星期五/怪诞星期五 Freaky.Friday.1976.1080p.BluRay.X264-AMIABLE ...

[复制链接]
百度云资源 发表于 2019-7-2 22:15:42 | 显示全部楼层 |阅读模式


帖子完整标题:疯狂星期五/怪诞星期五 Freaky.Friday.1976.1080p.BluRay.X264-AMIABLE 8.76GB




◎译  名 疯狂星期五 / 怪诞星期五 / 手忙脚乱 / 辣妈辣妹
◎片  名 Freaky Friday
◎年  代 1976
◎产  地 美国
◎类  别 喜剧 / 家庭 / 奇幻
◎语  言 英语
◎上映日期 1979-05-17
◎IMDb评分  6.3/10 from 10700 users
◎片  长 95 分钟
◎导  演 Gary Nelson
◎编  剧 Mary Rodgers
◎主  演 Barbara Harris
      Jodie Foster


◎标  签 美国 | 喜剧 | JodieFoster | 搞笑 | 母女 | 美国电影 | 家庭 | 换身体

◎简  介  

  本片的主要人物是一个中产家庭的两母女,母亲是典型的贤妻良母,女儿则是活泼好动,个性男性化的中学生。由于女儿不听管教,母女二人经常抱怨,希望成为对方。就在他们说出这句话的同时,奇迹发生了,他们的灵魂进行了互调。由于个性和修养的截然不同,母亲和女儿对调身体以后当然不能适应,而闹出一连串的笑话。
Video
ID                                       : 1
Format                                   : AVC
Format/Info                              : Advanced Video Codec
Format settings                          : CABAC / 4 Ref Frames
Format settings, CABAC                   : Yes
Format settings, RefFrames               : 4 frames
Codec ID                                 : V_MPEG4/ISO/AVC
Duration                                 : 1 h 38 min
Bit rate                                 : 12.4 Mb/s
Width                                    : 1 920 pixels
Height                                   : 1 040 pixels
Display aspect ratio                     : 1.85:1
Frame rate mode                          : Constant
Frame rate                               : 23.976 (24000/1001) FPS
Color space                              : YUV
Chroma subsampling                       : 4:2:0
Bit depth                                : 8 bits
Scan type                                : Progressive
Bits/(Pixel*Frame)                       : 0.260
Stream size                              : 8.35 GiB (95%)
Writing library                          : x264 core 155 r2901 7d0ff22
Encoding settings                        : cabac=1 / ref=4 / deblock=1:-3:-3 / analyse=0x3:0x113 / me=umh / subme=8 / psy=1 / psy_rd=1.10:0.00 / mixed_ref=1 / me_range=32 / chroma_me=1 / trellis=2 / 8x8dct=1 / cqm=0 / deadzone=21,11 / fast_pskip=1 / chroma_qp_offset=-2 / threads=24 / lookahead_threads=4 / sliced_threads=0 / nr=0 / decimate=1 / interlaced=0 / bluray_compat=0 / constrained_intra=0 / bframes=3 / b_pyramid=2 / b_adapt=2 / b_bias=0 / direct=3 / weightb=1 / open_gop=0 / weightp=2 / keyint=240 / keyint_min=24 / scenecut=40 / intra_refresh=0 / rc_lookahead=50 / rc=2pass / mbtree=1 / bitrate=12426 / ratetol=1.0 / qcomp=0.60 / qpmin=0 / qpmax=69 / qpstep=4 / cplxblur=20.0 / qblur=0.5 / ip_ratio=1.40 / aq=3:0.75
Default                                  : Yes
Forced                                   : No
Statistics Tags Issue                    : no_variable_data 1970-01-01 00:00:00 / no_variable_data 2010-02-22 21:41:29
FromStats_BitRate                        : 12425814
FromStats_Duration                       : 01:38:13.263000000
FromStats_FrameCount                     : 141297
FromStats_StreamSize                     : 9153573927

Audio
ID                                       : 2
Format                                   : AC-3
Format/Info                              : Audio Coding 3
Format settings, Endianness              : Big
Codec ID                                 : A_AC3
Duration                                 : 1 h 38 min
Bit rate mode                            : Constant
Bit rate                                 : 320 kb/s
Channel(s)                               : 2 channels
Channel positions                        : Front: L R
Sampling rate                            : 48.0 kHz
Frame rate                               : 31.250 FPS (1536 SPF)
Bit depth                                : 16 bits
Compression mode                         : Lossy
Stream size                              : 225 MiB (3%)
Language                                 : English
Service kind                             : Complete Main
Default                                  : Yes
Forced                                   : No
Statistics Tags Issue                    : no_variable_data 1970-01-01 00:00:00 / no_variable_data 2010-02-22 21:41:29
FromStats_BitRate                        : 320000
FromStats_Duration                       : 01:38:21.920000000
FromStats_FrameCount                     : 184435
FromStats_StreamSize                     : 236076800

Text #1
ID                                       : 3
Format                                   : UTF-8
Codec ID                                 : S_TEXT/UTF8
Codec ID/Info                            : UTF-8 Plain Text
Language                                 : English
Default                                  : No
Forced                                   : No
Statistics Tags Issue                    : no_variable_data 1970-01-01 00:00:00 / no_variable_data 2010-02-22 21:41:29
FromStats_BitRate                        : 81
FromStats_Duration                       : 01:37:50.323000000
FromStats_FrameCount                     : 1453
FromStats_StreamSize                     : 60118

Text #2
ID                                       : 4
Format                                   : UTF-8
Codec ID                                 : S_TEXT/UTF8
Codec ID/Info                            : UTF-8 Plain Text
Title                                    : SDH
Language                                 : English
Default                                  : No
Forced                                   : No
Statistics Tags Issue                    : no_variable_data 1970-01-01 00:00:00 / no_variable_data 2010-02-22 21:41:29
FromStats_BitRate                        : 87
FromStats_Duration                       : 01:37:56.245000000
FromStats_FrameCount                     : 1572
FromStats_StreamSize                     : 63977

Menu
00:00:00.000                             : en:00:00:00.000
00:03:27.749                             : en:00:03:27.749
00:08:32.637                             : en:00:08:32.637
00:18:35.072                             : en:00:18:35.072
00:28:53.690                             : en:00:28:53.690
00:33:51.780                             : en:00:33:51.780
00:46:01.092                             : en:00:46:01.092
00:53:31.458                             : en:00:53:31.458
01:06:01.666                             : en:01:06:01.666
01:14:31.967                             : en:01:14:31.967
01:20:20.357                             : en:01:20:20.357
01:34:21.447                             : en:01:34:21.447



                                                                                                                                                                                                        
                                                                                                                                                                                                                                                                                                                                                                                                                                                                                                                                                                                                                                                                                                                                                                                                                                                        
c572201fbf0300d061adef8d01d50630.torrent (88.42 KB, 下载次数: 8)

回复

使用道具 举报

小黑屋|磁力链接吧 |网站地图

本网站所有资源来自网络,如无意中侵犯了您的权益,请发邮件至 [email protected],立即清除相关链接

GMT+8, 2019-11-17 14:52 , Processed in 0.103068 second(s), 23 queries .

Powered by Discuz! X3.2

© 2001-2013 Comsenz Inc.

快速回复 返回顶部 返回列表