磁力链接吧

 找回密码
 立即注册
搜索

心情故事/冤家一族 Home.for.the.Holidays.1995.1080p.BluRay.X264-AMIABL...

[复制链接]
百度云资源 发表于 2019-7-2 10:05:36 | 显示全部楼层 |阅读模式


帖子完整标题:心情故事/冤家一族 Home.for.the.Holidays.1995.1080p.BluRay.X264-AMIABLE 10.94GB




◎译  名 心情故事 / 冤家一族 / 回家过节
◎片  名 Home for the Holidays
◎年  代 1995
◎产  地 美国
◎类  别 剧情 / 喜剧 / 爱情
◎语  言 英语
◎上映日期 1995-11-03(美国)
◎IMDb评分  6.6/10 from 10762 users
◎片  长 103分钟
◎导  演 朱迪·福斯特 Jodie Foster
◎编  剧 Chris Radant / W.D. Richter
◎主  演 霍利·亨特 Holly Hunter
      小罗伯特·唐尼 Robert Downey Jr.
      安妮·班克罗夫特 Anne Bancroft
      查尔斯·德恩 Charles Durning
      迪伦·麦克德莫特 Dylan McDermott
      杰拉丁·卓别林 Geraldine Chaplin
      斯蒂夫·古根伯格 Steve Guttenberg
      辛西娅·斯蒂文森 Cynthia Stevenson
      克莱尔·丹妮丝 Claire Danes
      艾米丽·安·劳埃德 Emily Ann Lloyd
      Zack Duhame
      奥斯汀·潘德尔顿 Austin Pendleton
      大卫·斯特雷泽恩 David Strathairn
      艾米·雅丝贝克 Amy Yasbeck
      James Lecesne


◎标  签 美国 | JodieFoster | RobertDowneyJr. | 喜剧 | 美国电影 | 家庭 | 1995 | RobertDowneyJr

◎简  介  

  感恩节临近,年轻美丽的单身妈妈克劳迪娅·拉森(霍莉·亨特 Holly Hunter 饰)意外地丢掉了工作,正处在青春期的女儿凯特(克莱尔·丹尼斯 Claire Danes 饰)则坚持要和相爱的男友上床。克劳迪娅倍感落寞,她致电向弟弟汤米(小罗伯特·唐尼 Robert Downey Jr. 饰)哭诉,并通过答录机约定同回家中过节。年近古稀的父母无私地拥抱着这个倦鸟知归的女儿,父亲亨利(查尔斯·德恩 Charles Durning 饰)自由自在,童心未泯;母亲阿黛勒(安妮·班克罗夫特 Anne Bancroft 饰)仍视女儿为孩子,言语中充满着过度而温暖的关怀。
不久,汤米和姐姐琼安(辛西娅·斯蒂文森 Cynthia Stevenson 饰)一家以及颇有些怪异的格罗蒂阿姨(杰拉丁·卓别林 Geraldine Chaplin 饰)相继赶回家中,温馨的气氛却渐渐为争吵和矛盾所取代……
Video
ID                                       : 1
Format                                   : AVC
Format/Info                              : Advanced Video Codec
Format settings                          : CABAC / 4 Ref Frames
Format settings, CABAC                   : Yes
Format settings, RefFrames               : 4 frames
Codec ID                                 : V_MPEG4/ISO/AVC
Duration                                 : 1 h 43 min
Bit rate                                 : 13.7 Mb/s
Width                                    : 1 920 pixels
Height                                   : 1 040 pixels
Display aspect ratio                     : 1.85:1
Frame rate mode                          : Constant
Frame rate                               : 23.976 (24000/1001) FPS
Color space                              : YUV
Chroma subsampling                       : 4:2:0
Bit depth                                : 8 bits
Scan type                                : Progressive
Bits/(Pixel*Frame)                       : 0.286
Stream size                              : 9.63 GiB (88%)
Writing library                          : x264 core 152 r2851 ba24899
Encoding settings                        : cabac=1 / ref=4 / deblock=1:-3:-3 / analyse=0x3:0x113 / me=umh / subme=8 / psy=1 / psy_rd=1.12:0.00 / mixed_ref=1 / me_range=32 / chroma_me=1 / trellis=2 / 8x8dct=1 / cqm=0 / deadzone=21,11 / fast_pskip=1 / chroma_qp_offset=-2 / threads=24 / lookahead_threads=4 / sliced_threads=0 / nr=0 / decimate=1 / interlaced=0 / bluray_compat=0 / constrained_intra=0 / bframes=3 / b_pyramid=2 / b_adapt=2 / b_bias=0 / direct=3 / weightb=1 / open_gop=0 / weightp=2 / keyint=240 / keyint_min=24 / scenecut=40 / intra_refresh=0 / rc_lookahead=50 / rc=2pass / mbtree=1 / bitrate=13685 / ratetol=1.0 / qcomp=0.60 / qpmin=0 / qpmax=69 / qpstep=4 / cplxblur=20.0 / qblur=0.5 / ip_ratio=1.40 / aq=3:0.75
Default                                  : Yes
Forced                                   : No
Statistics Tags Issue                    : no_variable_data 1970-01-01 00:00:00 / no_variable_data 2010-02-22 21:41:29
FromStats_BitRate                        : 13680872
FromStats_Duration                       : 01:43:00.508000000
FromStats_FrameCount                     : 148184
FromStats_StreamSize                     : 10569342592

Audio
ID                                       : 2
Format                                   : DTS
Format/Info                              : Digital Theater Systems
Mode                                     : 16
Format settings, Endianness              : Big
Codec ID                                 : A_DTS
Duration                                 : 1 h 43 min
Bit rate mode                            : Constant
Bit rate                                 : 1 509 kb/s
Channel(s)                               : 2 channels
Channel positions                        : Front: L R
Sampling rate                            : 48.0 kHz
Frame rate                               : 93.750 FPS (512 SPF)
Bit depth                                : 24 bits
Compression mode                         : Lossy
Stream size                              : 1.09 GiB (10%)
Language                                 : English
Default                                  : Yes
Forced                                   : No
Statistics Tags Issue                    : no_variable_data 1970-01-01 00:00:00 / no_variable_data 2010-02-22 21:41:29
FromStats_BitRate                        : 1509000
FromStats_Duration                       : 01:43:01.024000000
FromStats_FrameCount                     : 579471
FromStats_StreamSize                     : 1165895652

Text #1
ID                                       : 3
Format                                   : UTF-8
Codec ID                                 : S_TEXT/UTF8
Codec ID/Info                            : UTF-8 Plain Text
Language                                 : English
Default                                  : No
Forced                                   : No
Statistics Tags Issue                    : no_variable_data 1970-01-01 00:00:00 / no_variable_data 2010-02-22 21:41:29
FromStats_BitRate                        : 76
FromStats_Duration                       : 01:42:13.919000000
FromStats_FrameCount                     : 2483
FromStats_StreamSize                     : 58290

Text #2
ID                                       : 4
Format                                   : UTF-8
Codec ID                                 : S_TEXT/UTF8
Codec ID/Info                            : UTF-8 Plain Text
Title                                    : SDH
Language                                 : English
Default                                  : No
Forced                                   : No
Statistics Tags Issue                    : no_variable_data 1970-01-01 00:00:00 / no_variable_data 2010-02-22 21:41:29
FromStats_BitRate                        : 78
FromStats_Duration                       : 01:42:19.091000000
FromStats_FrameCount                     : 2585
FromStats_StreamSize                     : 60615

Menu
00:00:00.000                             : en:00:00:00.000
00:06:36.563                             : en:00:06:36.563
00:12:07.810                             : en:00:12:07.810
00:22:44.530                             : en:00:22:44.530
00:34:43.456                             : en:00:34:43.456
00:46:07.181                             : en:00:46:07.181
01:03:57.584                             : en:01:03:57.584
01:11:08.639                             : en:01:11:08.639
01:26:42.489                             : en:01:26:42.489
01:38:47.505                             : en:01:38:47.505



                                                                                                                                                                                                        
                                                                                                                                                                                                                                                                                                                                                                                                                                                                                                                                                                                                                                                                                                                                                                                                                                                        
56c049576c04470b806168c903670361.torrent (55.59 KB, 下载次数: 6)

回复

使用道具 举报

小黑屋|磁力链接吧 |网站地图

本网站所有资源来自网络,如无意中侵犯了您的权益,请发邮件至 [email protected],立即清除相关链接

GMT+8, 2020-2-28 19:58 , Processed in 0.474622 second(s), 23 queries .

Powered by Discuz! X3.2

© 2001-2013 Comsenz Inc.

快速回复 返回顶部 返回列表