磁力链接吧

 找回密码
 立即注册
搜索

趾高气扬 Horse.Feathers.1932.1080p.BluRay.x264-SiNNERS 6.56GB

[复制链接]
百度云资源 发表于 2019-7-2 10:05:36 | 显示全部楼层 |阅读模式


帖子完整标题:趾高气扬 Horse.Feathers.1932.1080p.BluRay.x264-SiNNERS 6.56GB




◎译  名 趾高气扬
◎片  名 Horse Feathers
◎年  代 1932
◎产  地 美国
◎类  别 喜剧 / 爱情 / 运动
◎语  言 英语
◎上映日期 1932-08-19
◎IMDb评分  7.7/10 from 10851 users
◎片  长 68 分钟
◎导  演 诺曼·Z·麦克劳德 Norman Z. McLeod
◎编  剧 亚瑟·谢尔曼 Arthur Sheekman / 伯特·卡尔马 Bert Kalmar / 哈里·鲁比 Harry Ruby
◎主  演 格劳乔·马克斯 Groucho Marx
      哈勃·马克斯 Harpo Marx
      奇科·马克斯 Chico Marx
      泽伯·马克斯 Zeppo Marx


◎标  签 美国 | 喜剧 | 马克斯兄弟 | MarxBrothers | 1932 | comedy | 1930s | Marx_Brothers

◎简  介  

  昆西教授到贺胥黎大学新任校长,他对于教育的态度是绅士式的,但对自己的儿子弗兰科就不是这样了。弗兰科与学校里的一名寡妇康妮相好。为了在与竞争对手达尔文大学的足球比赛中获胜,弗兰科建议昆西到地下酒吧中招募两名足球好手。不幸的是,昆西认错了人,录用了不合适的巴拉维利和品奇。在得知达尔文大学将用“真正”的足球运动员来打败自己后,昆西让巴拉维利和品奇绑架对手,最终造成了一场无政府主义的足球赛。
Video
ID                                       : 1
Format                                   : AVC
Format/Info                              : Advanced Video Codec
Format settings, CABAC                   : Yes
Format settings, ReFrames                : 5 frames
Codec ID                                 : V_MPEG4/ISO/AVC
Duration                                 : 1h 7mn
Bit rate                                 : 12.5 Mbps
Width                                    : 1 440 pixels
Height                                   : 1 080 pixels
Display aspect ratio                     : 4:3
Frame rate mode                          : Constant
Frame rate                               : 23.976 (24000/1001) fps
Color space                              : YUV
Chroma subsampling                       : 4:2:0
Bit depth                                : 8 bits
Scan type                                : Progressive
Bits/(Pixel*Frame)                       : 0.334
Stream size                              : 5.72 GiB (87%)
Writing library                          : x264 core 148 r2721 72d53ab
Encoding settings                        : cabac=1 / ref=5 / deblock=1:-3:-3 / analyse=0x3:0x113 / me=umh / subme=8 / psy=1 / psy_rd=1.00:0.00 / mixed_ref=1 / me_range=16 / chroma_me=1 / trellis=1 / 8x8dct=1 / cqm=0 / deadzone=21,11 / fast_pskip=0 / chroma_qp_offset=-2 / threads=18 / lookahead_threads=3 / sliced_threads=0 / nr=0 / decimate=1 / interlaced=0 / bluray_compat=0 / constrained_intra=0 / bframes=3 / b_pyramid=2 / b_adapt=1 / b_bias=0 / direct=1 / weightb=1 / open_gop=0 / weightp=2 / keyint=250 / keyint_min=23 / scenecut=40 / intra_refresh=0 / rc_lookahead=40 / rc=2pass / mbtree=1 / bitrate=12455 / ratetol=1.0 / qcomp=0.60 / qpmin=0 / qpmax=69 / qpstep=4 / cplxblur=20.0 / qblur=0.5 / ip_ratio=1.40 / aq=1:1.00
Language                                 : English
Default                                  : Yes
Forced                                   : No

Audio
ID                                       : 2
Format                                   : DTS
Format/Info                              : Digital Theater Systems
Mode                                     : 16
Format settings, Endianness              : Big
Codec ID                                 : A_DTS
Duration                                 : 1h 7mn
Bit rate mode                            : Constant
Bit rate                                 : 1 509 Kbps
Channel(s)                               : 2 channels
Channel positions                        : Front: L R
Sampling rate                            : 48.0 KHz
Frame rate                               : 93.750 fps (512 spf)
Bit depth                                : 24 bits
Compression mode                         : Lossy
Stream size                              : 726 MiB (11%)
Language                                 : English
Default                                  : Yes
Forced                                   : No

Text #1
ID                                       : 3
Format                                   : UTF-8
Codec ID                                 : S_TEXT/UTF8
Codec ID/Info                            : UTF-8 Plain Text
Language                                 : English
Default                                  : No
Forced                                   : No

Text #2
ID                                       : 4
Format                                   : UTF-8
Codec ID                                 : S_TEXT/UTF8
Codec ID/Info                            : UTF-8 Plain Text
Title                                    : SDH
Language                                 : English
Default                                  : No
Forced                                   : No

Menu
00:00:00.000                             : en:00:00:00.000
00:01:19.037                             : en:00:01:19.037
00:04:16.214                             : en:00:04:16.214
00:07:22.817                             : en:00:07:22.817
00:09:40.705                             : en:00:09:40.705
00:16:49.884                             : en:00:16:49.884
00:18:38.826                             : en:00:18:38.826
00:20:41.031                             : en:00:20:41.031
00:24:51.365                             : en:00:24:51.365
00:30:09.891                             : en:00:30:09.891
00:35:03.310                             : en:00:35:03.310
00:38:51.371                             : en:00:38:51.371
00:41:45.878                             : en:00:41:45.878
00:45:06.704                             : en:00:45:06.704
00:49:22.001                             : en:00:49:22.001
00:55:19.775                             : en:00:55:19.775
00:59:06.877                             : en:00:59:06.877
01:06:12.552                             : en:01:06:12.552



                                                                                                                                                                                                        
                                                                                                                                                                                                                                                                                                                                                                                                                                                                                                                                                                                                                                                                                                                                                                                                                                                        
bce61118a12ec2aeed1d3cc1c3f7f5f2.torrent (131.78 KB, 下载次数: 16)

回复

使用道具 举报

小黑屋|磁力链接吧 |网站地图

本网站所有资源来自网络,如无意中侵犯了您的权益,请发邮件至 [email protected],立即清除相关链接

GMT+8, 2020-2-28 21:11 , Processed in 0.118433 second(s), 23 queries .

Powered by Discuz! X3.2

© 2001-2013 Comsenz Inc.

快速回复 返回顶部 返回列表