磁力链接吧

 找回密码
 立即注册
搜索

赌城回忆录/赌场回忆录 Lay.the.Favorite.2012.1080p.BluRay.x264.DTS-F...

[复制链接]
百度云资源 发表于 2019-7-2 10:05:36 | 显示全部楼层 |阅读模式


帖子完整标题:赌城回忆录/赌场回忆录 Lay.the.Favorite.2012.1080p.BluRay.x264.DTS-FGT 9.01GB




◎译  名 赌城回忆录 / 赌场回忆录
◎片  名 Lay the Favorite
◎年  代 2012
◎产  地 美国 / 英国
◎类  别 剧情 / 喜剧
◎语  言 英语
◎上映日期 2012-06-12(英国) / 2012-12-07(美国)
◎IMDb评分  4.8/10 from 10582 users
◎片  长 94分钟
◎导  演 斯蒂芬·弗雷斯 Stephen Frears
◎编  剧 D.V. DeVincentis / Beth Raymer
◎主  演 丽贝卡·豪尔 Rebecca Hall
      布鲁斯·威利斯 Bruce Willis
      凯瑟琳·泽塔-琼斯 Catherine Zeta-Jones
      文斯·沃恩 Vince Vaughn
      劳拉·普莱潘 Laura Prepon
      乔舒亚·杰克逊 Joshua Jackson
      弗兰克·格里罗 Frank Grillo


◎标  签 美国 | 喜剧 | BruceWillis | 布鲁斯·威利斯 | 剧情 | 2012 | CatherineZetaJones | RebeccaHall

◎简  介  

  在离开了弗罗里达之后,贝丝(丽贝卡·豪尔 Rebecca Hall 饰)来到了诸多淘金者心目中的圣地拉斯维加斯,在那里,她找到了一份酒吧女招待的工作。虽然生活和设想中的大相径庭,但贝丝并没有太多的精力去思考和抱怨,每一天,能够吃饱,有地方住就已经是最大的奢侈了。
赌徒丁克(布鲁斯·威利斯 Bruce Willis 饰)正是看准了贝丝这种浑浑噩噩的生活状态,才会找到她希望她成为自己的搭档的,没想到,这个选择却为他带来了千载难逢的好运气。原来,贝丝对数字和概率十分敏感,在她和丁克天衣无缝的配合下,两人在赌场中占尽了风头,却也惹恼了丁克那小心眼的老婆图丽普(凯瑟琳·泽塔-琼斯 Catherine Zeta-Jones 饰)。
Video
ID                                       : 1
Format                                   : AVC
Format/Info                              : Advanced Video Codec
Format settings, CABAC                   : Yes
Format settings, ReFrames                : 4 frames
Codec ID                                 : V_MPEG4/ISO/AVC
Duration                                 : 1h 33mn
Bit rate                                 : 12.3 Mbps
Width                                    : 1 920 pixels
Height                                   : 1 040 pixels
Display aspect ratio                     : 1.85:1
Frame rate mode                          : Constant
Frame rate                               : 24.000 fps
Color space                              : YUV
Chroma subsampling                       : 4:2:0
Bit depth                                : 8 bits
Scan type                                : Progressive
Bits/(Pixel*Frame)                       : 0.256
Stream size                              : 7.85 GiB (87%)
Writing library                          : x264 core 125 r2200 999b753
Encoding settings                        : cabac=1 / ref=4 / deblock=1:-3:-3 / analyse=0x3:0x113 / me=umh / subme=11 / psy=1 / psy_rd=2.00:1.00 / mixed_ref=1 / me_range=32 / chroma_me=1 / trellis=2 / 8x8dct=1 / cqm=0 / deadzone=21,11 / fast_pskip=1 / chroma_qp_offset=-4 / threads=12 / lookahead_threads=2 / sliced_threads=0 / nr=0 / decimate=1 / interlaced=0 / bluray_compat=0 / constrained_intra=0 / bframes=7 / b_pyramid=2 / b_adapt=2 / b_bias=0 / direct=1 / weightb=1 / open_gop=0 / weightp=2 / keyint=240 / keyint_min=24 / scenecut=40 / intra_refresh=0 / rc_lookahead=40 / rc=2pass / mbtree=1 / bitrate=12287 / ratetol=1.0 / qcomp=0.70 / qpmin=0 / qpmax=51 / qpstep=4 / cplxblur=20.0 / qblur=0.5 / ip_ratio=1.40 / aq=1:1.00
Language                                 : English
Default                                  : Yes
Forced                                   : No

Audio
ID                                       : 2
Format                                   : DTS
Format/Info                              : Digital Theater Systems
Mode                                     : 16
Format settings, Endianness              : Big
Codec ID                                 : A_DTS
Duration                                 : 1h 33mn
Bit rate mode                            : Constant
Bit rate                                 : 1 509 Kbps
Channel(s)                               : 6 channels
Channel positions                        : Front: L C R, Side: L R, LFE
Sampling rate                            : 48.0 KHz
Bit depth                                : 16 bits
Compression mode                         : Lossy
Stream size                              : 1 010 MiB (11%)
Language                                 : English
Default                                  : Yes
Forced                                   : No

Text #1
ID                                       : 3
Format                                   : UTF-8
Codec ID                                 : S_TEXT/UTF8
Codec ID/Info                            : UTF-8 Plain Text
Language                                 : English
Default                                  : No
Forced                                   : No

Text #2
ID                                       : 4
Format                                   : UTF-8
Codec ID                                 : S_TEXT/UTF8
Codec ID/Info                            : UTF-8 Plain Text
Title                                    : SDH
Language                                 : English
Default                                  : No
Forced                                   : No

Menu
00:00:00.000                             : en:Chapter 00
00:13:05.833                             : en:Chapter 01
00:26:00.833                             : en:Chapter 02
00:38:00.416                             : en:Chapter 03
00:50:49.958                             : en:Chapter 04
01:02:37.708                             : en:Chapter 05
01:14:50.333                             : en:Chapter 06
01:29:38.333                             : en:Chapter 07



                                                                                                                                                                                                        
                                                                                                                                                                                                                                                                                                                                                                                                                                                                                                                                                                                                                                                                                                                                                                                                                                                        
133ec51961ecbb699d27c394d51c052c.torrent (90.71 KB, 下载次数: 2)

回复

使用道具 举报

小黑屋|磁力链接吧 |网站地图

本网站所有资源来自网络,如无意中侵犯了您的权益,请发邮件至 [email protected],立即清除相关链接

GMT+8, 2020-2-28 20:23 , Processed in 0.129223 second(s), 23 queries .

Powered by Discuz! X3.2

© 2001-2013 Comsenz Inc.

快速回复 返回顶部 返回列表