磁力链接吧

 找回密码
 立即注册
搜索

尼古拉斯·尼克贝/少爷返乡 Nicholas.Nickleby.2002.1080p.BluRay.X264-... ...

[复制链接]
百度云资源 发表于 2019-7-2 10:05:36 | 显示全部楼层 |阅读模式


帖子完整标题:尼古拉斯·尼克贝/少爷返乡 Nicholas.Nickleby.2002.1080p.BluRay.X264-AMIABLE 10.93GB




◎译  名 尼古拉斯·尼克贝 / 少爷返乡 / 尖锋急吼 / 百劫情缘
◎片  名 Nicholas Nickleby
◎年  代 2002
◎产  地 英国 / 美国
◎类  别 剧情
◎语  言 英语
◎上映日期 2003-06-27(英国)
◎IMDb评分  7.2/10 from 10875 users
◎片  长 132分钟
◎导  演 道格拉斯·麦克格兰斯 Douglas McGrath
◎编  剧 查尔斯·狄更斯 Charles Dickens / 道格拉斯·麦克格兰斯 Douglas McGrath
◎主  演 查理·汉纳姆 Charlie Hunnam
      杰米·贝尔 Jamie Bell
      克里斯托弗·普卢默 Christopher Plummer
      吉姆·布劳德本特 Jim Broadbent
      萝玛拉·嘉瑞 Romola Garai
      安妮·海瑟薇 Anne Hathaway


◎标  签 英国 | 名著改编 | 狄更斯 | 英国电影 | AnneHathaway | JamieBell | 安妮·海瑟薇 | 2002

◎简  介  

  尼古拉斯?尼克贝(查理?汉纳姆 饰)的父亲死后,家中失去经济支柱。他与母亲、妹妹便到了伦敦想要投靠伯父拉尔夫,拉尔夫是个惟利是图的人,他只想从尼古拉斯身上得到最多的得意。于是尼古拉斯被送到伯父好友沃克弗德(吉姆?布劳德本特 饰),但所谓的学校里面的孩子都遭沃克弗德夫妻虐待。尼古拉斯愤怒之下,教训了沃克弗德后便带着最可怜的史迈克(杰米?贝尔 饰)离开了。
路上他们得到过好心人帮助。得知妹妹凯特因伯父的关系险被破坏名声,尼古拉斯回到伦敦后与伯父断绝了关系。幸运的是他得到了采瑞博兄弟的赏识,得到了收入不菲的工作。而不幸的是相处已久的史迈克因病逝世。
拉尔夫不甘被反抗,暗地里想办法打垮尼古拉斯,但拉尔夫的助手正义的站到了尼古拉斯那边,向他通风报信。尼古拉斯对美丽的玛德琳(安妮?海瑟薇 饰)一见钟情,拉尔夫又想从中破坏他们之间的关系。这时拉尔夫正面临破产,而且从尼古拉斯口中得知了一个多年的秘密……
Video
ID                                       : 1
Format                                   : AVC
Format/Info                              : Advanced Video Codec
Format settings, CABAC                   : Yes
Format settings, ReFrames                : 5 frames
Codec ID                                 : V_MPEG4/ISO/AVC
Duration                                 : 2 h 12 min
Bit rate                                 : 10.3 Mb/s
Width                                    : 1 920 pixels
Height                                   : 824 pixels
Display aspect ratio                     : 2.35:1
Frame rate mode                          : Constant
Frame rate                               : 23.976 (24000/1001) FPS
Color space                              : YUV
Chroma subsampling                       : 4:2:0
Bit depth                                : 8 bits
Scan type                                : Progressive
Bits/(Pixel*Frame)                       : 0.272
Stream size                              : 9.32 GiB (85%)
Writing library                          : x264 core 148 r2744 b97ae06
Encoding settings                        : cabac=1 / ref=5 / deblock=1:-3:-3 / analyse=0x3:0x113 / me=umh / subme=8 / psy=1 / psy_rd=1.10:0.00 / mixed_ref=1 / me_range=32 / chroma_me=1 / trellis=1 / 8x8dct=1 / cqm=0 / deadzone=21,11 / fast_pskip=1 / chroma_qp_offset=-2 / threads=24 / lookahead_threads=4 / sliced_threads=0 / nr=0 / decimate=1 / interlaced=0 / bluray_compat=0 / constrained_intra=0 / bframes=3 / b_pyramid=2 / b_adapt=2 / b_bias=0 / direct=3 / weightb=1 / open_gop=0 / weightp=2 / keyint=240 / keyint_min=24 / scenecut=40 / intra_refresh=0 / rc_lookahead=50 / rc=2pass / mbtree=1 / bitrate=10300 / ratetol=1.0 / qcomp=0.60 / qpmin=0 / qpmax=69 / qpstep=4 / cplxblur=20.0 / qblur=0.5 / ip_ratio=1.40 / aq=3:0.75
Default                                  : Yes
Forced                                   : No
Statistics Tags Issue                    : no_variable_data 1970-01-01 00:00:00 / no_variable_data 2010-02-22 21:41:29
FromStats_BitRate                        : 10297639
FromStats_Duration                       : 02:12:30.526000000
FromStats_FrameCount                     : 190622
FromStats_StreamSize                     : 10233956312

Audio
ID                                       : 2
Format                                   : DTS
Format/Info                              : Digital Theater Systems
Mode                                     : 16
Format settings, Endianness              : Big
Codec ID                                 : A_DTS
Duration                                 : 2 h 12 min
Bit rate mode                            : Constant
Bit rate                                 : 1 509 kb/s
Channel(s)                               : 6 channels
Channel positions                        : Front: L C R, Side: L R, LFE
Sampling rate                            : 48.0 kHz
Frame rate                               : 93.750 FPS (512 spf)
Bit depth                                : 24 bits
Compression mode                         : Lossy
Stream size                              : 1.40 GiB (13%)
Language                                 : English
Default                                  : Yes
Forced                                   : No
Statistics Tags Issue                    : no_variable_data 1970-01-01 00:00:00 / no_variable_data 2010-02-22 21:41:29
FromStats_BitRate                        : 1509000
FromStats_Duration                       : 02:12:30.528000000
FromStats_FrameCount                     : 745362
FromStats_StreamSize                     : 1499668344

Text #1
ID                                       : 3
Format                                   : UTF-8
Codec ID                                 : S_TEXT/UTF8
Codec ID/Info                            : UTF-8 Plain Text
Language                                 : English
Default                                  : No
Forced                                   : No
Statistics Tags Issue                    : no_variable_data 1970-01-01 00:00:00 / no_variable_data 2010-02-22 21:41:29
FromStats_BitRate                        : 65
FromStats_Duration                       : 02:05:23.516000000
FromStats_FrameCount                     : 1899
FromStats_StreamSize                     : 61263

Text #2
ID                                       : 4
Format                                   : UTF-8
Codec ID                                 : S_TEXT/UTF8
Codec ID/Info                            : UTF-8 Plain Text
Title                                    : SDH
Language                                 : English
Default                                  : No
Forced                                   : No
Statistics Tags Issue                    : no_variable_data 1970-01-01 00:00:00 / no_variable_data 2010-02-22 21:41:29
FromStats_BitRate                        : 69
FromStats_Duration                       : 02:05:23.516000000
FromStats_FrameCount                     : 2082
FromStats_StreamSize                     : 65035

Menu
00:00:00.000                             : en:00:00:00.000
00:06:01.903                             : en:00:06:01.903
00:10:29.963                             : en:00:10:29.963
00:17:16.118                             : en:00:17:16.118
00:23:43.756                             : en:00:23:43.756
00:28:00.053                             : en:00:28:00.053
00:33:43.021                             : en:00:33:43.021
00:39:43.881                             : en:00:39:43.881
00:44:42.680                             : en:00:44:42.680
00:48:20.940                             : en:00:48:20.940
00:56:39.229                             : en:00:56:39.229
01:02:37.253                             : en:01:02:37.253
01:07:13.279                             : en:01:07:13.279
01:12:36.227                             : en:01:12:36.227
01:18:21.530                             : en:01:18:21.530
01:24:10.045                             : en:01:24:10.045
01:29:24.526                             : en:01:29:24.526
01:35:55.917                             : en:01:35:55.917
01:42:08.331                             : en:01:42:08.331
01:46:49.028                             : en:01:46:49.028
01:51:39.359                             : en:01:51:39.359
01:56:29.900                             : en:01:56:29.900
02:02:31.636                             : en:02:02:31.636
02:09:21.754                             : en:02:09:21.754



                                                                                                                                                                                                        
                                                                                                                                                                                                                                                                                                                                                                                                                                                                                                                                                                                                                                                                                                                                                                                                                                                        
d7127a3431ca78810ed854f7cf0adaab.torrent (55.19 KB, 下载次数: 7)

回复

使用道具 举报

小黑屋|磁力链接吧 |网站地图

本网站所有资源来自网络,如无意中侵犯了您的权益,请发邮件至 [email protected],立即清除相关链接

GMT+8, 2020-9-24 02:50 , Processed in 0.115543 second(s), 23 queries .

Powered by Discuz! X3.2

© 2001-2013 Comsenz Inc.

快速回复 返回顶部 返回列表