磁力链接吧

 找回密码
 立即注册
搜索

恶作剧/骗人把戏 Monkey.Business.1931.1080p.BluRay.x264-SiNNERS 7.65GB

[复制链接]
百度云资源 发表于 2019-7-2 10:05:36 | 显示全部楼层 |阅读模式


帖子完整标题:恶作剧/骗人把戏 Monkey.Business.1931.1080p.BluRay.x264-SiNNERS 7.65GB




◎译  名 恶作剧 / 骗人把戏
◎片  名 Monkey Business
◎年  代 1931
◎产  地 美国
◎类  别 喜剧
◎语  言 英语
◎上映日期 1931-09-19
◎IMDb评分  7.6/10 from 10450 users
◎片  长 77 分钟
◎导  演 诺曼 Z. 麦克雷欧德 (Norman Z. McLeod)
◎编  剧 亚瑟·谢尔曼 / 本·赫克特 / Roland Pertwee
◎主  演 Groucho Marx
      Harpo Marx
      Chico Marx
      Zeppo Marx


◎标  签 美国 | 喜剧 | 1930s | MarxBrothers | 黑白 | 马克斯兄弟 | 1931 | 马克思兄弟

◎简  介  

  在一艘将要开往美国的轮船上,四个偷偷混上船的小伙子为了逃避船员的耳目,无意间卷入了两个原本不合的强盗团伙的火拼中。当船到了美国之后,其中一个强盗绑架了另外一个强盗的女儿——这个时候,我们的三脚猫英雄又要担负起拯救世界的使命啦!
Video
ID                                       : 1
Format                                   : AVC
Format/Info                              : Advanced Video Codec
Format settings, CABAC                   : Yes
Format settings, ReFrames                : 5 frames
Codec ID                                 : V_MPEG4/ISO/AVC
Duration                                 : 1h 17mn
Bit rate                                 : 12.6 Mbps
Width                                    : 1 440 pixels
Height                                   : 1 080 pixels
Display aspect ratio                     : 4:3
Frame rate mode                          : Constant
Frame rate                               : 23.976 (24000/1001) fps
Color space                              : YUV
Chroma subsampling                       : 4:2:0
Bit depth                                : 8 bits
Scan type                                : Progressive
Bits/(Pixel*Frame)                       : 0.337
Stream size                              : 6.68 GiB (87%)
Writing library                          : x264 core 148 r2721 72d53ab
Encoding settings                        : cabac=1 / ref=5 / deblock=1:-3:-3 / analyse=0x3:0x113 / me=umh / subme=8 / psy=1 / psy_rd=1.00:0.00 / mixed_ref=1 / me_range=16 / chroma_me=1 / trellis=1 / 8x8dct=1 / cqm=0 / deadzone=21,11 / fast_pskip=0 / chroma_qp_offset=-2 / threads=18 / lookahead_threads=3 / sliced_threads=0 / nr=0 / decimate=1 / interlaced=0 / bluray_compat=0 / constrained_intra=0 / bframes=3 / b_pyramid=2 / b_adapt=1 / b_bias=0 / direct=1 / weightb=1 / open_gop=0 / weightp=2 / keyint=250 / keyint_min=23 / scenecut=40 / intra_refresh=0 / rc_lookahead=40 / rc=2pass / mbtree=1 / bitrate=12556 / ratetol=1.0 / qcomp=0.60 / qpmin=0 / qpmax=69 / qpstep=4 / cplxblur=20.0 / qblur=0.5 / ip_ratio=1.40 / aq=1:1.00
Language                                 : English
Default                                  : Yes
Forced                                   : No

Audio
ID                                       : 2
Format                                   : DTS
Format/Info                              : Digital Theater Systems
Mode                                     : 16
Format settings, Endianness              : Big
Codec ID                                 : A_DTS
Duration                                 : 1h 17mn
Bit rate mode                            : Constant
Bit rate                                 : 1 509 Kbps
Channel(s)                               : 2 channels
Channel positions                        : Front: L R
Sampling rate                            : 48.0 KHz
Frame rate                               : 93.750 fps (512 spf)
Bit depth                                : 24 bits
Compression mode                         : Lossy
Stream size                              : 841 MiB (11%)
Language                                 : English
Default                                  : Yes
Forced                                   : No

Text #1
ID                                       : 3
Format                                   : UTF-8
Codec ID                                 : S_TEXT/UTF8
Codec ID/Info                            : UTF-8 Plain Text
Language                                 : English
Default                                  : No
Forced                                   : No

Text #2
ID                                       : 4
Format                                   : UTF-8
Codec ID                                 : S_TEXT/UTF8
Codec ID/Info                            : UTF-8 Plain Text
Title                                    : SDH
Language                                 : English
Default                                  : No
Forced                                   : No

Menu
00:00:00.000                             : en:00:00:00.000
00:01:33.844                             : en:00:01:33.844
00:06:48.116                             : en:00:06:48.116
00:12:31.084                             : en:00:12:31.084
00:17:03.147                             : en:00:17:03.147
00:19:57.113                             : en:00:19:57.113
00:24:26.423                             : en:00:24:26.423
00:30:15.147                             : en:00:30:15.147
00:35:17.615                             : en:00:35:17.615
00:40:39.896                             : en:00:40:39.896
00:44:54.609                             : en:00:44:54.609
00:51:02.851                             : en:00:51:02.851
00:55:15.938                             : en:00:55:15.938
01:00:10.232                             : en:01:00:10.232
01:03:46.823                             : en:01:03:46.823
01:09:45.515                             : en:01:09:45.515
01:12:58.374                             : en:01:12:58.374
01:17:16.590                             : en:01:17:16.590



                                                                                                                                                                                                        
                                                                                                                                                                                                                                                                                                                                                                                                                                                                                                                                                                                                                                                                                                                                                                                                                                                        
c1def025e542049bfe0ce5ee562a4fc4.torrent (77.13 KB, 下载次数: 10)

回复

使用道具 举报

小黑屋|磁力链接吧 |网站地图

本网站所有资源来自网络,如无意中侵犯了您的权益,请发邮件至 [email protected],立即清除相关链接

GMT+8, 2020-9-24 04:28 , Processed in 0.156736 second(s), 23 queries .

Powered by Discuz! X3.2

© 2001-2013 Comsenz Inc.

快速回复 返回顶部 返回列表