磁力链接吧

 找回密码
 立即注册
搜索

黑神驹/沙漠黑驹 The.Black.Stallion.1979.REMASTERED.1080p.BluRay.x264-S...

[复制链接]
百度云资源 发表于 2019-7-2 10:05:36 | 显示全部楼层 |阅读模式


帖子完整标题:黑神驹/沙漠黑驹 The.Black.Stallion.1979.REMASTERED.1080p.BluRay.x264-SADPANDA 12.03GB




◎译  名 黑神驹 / 沙漠黑驹 / 灵驹
◎片  名 The Black Stallion
◎年  代 1979
◎产  地 美国
◎类  别 家庭 / 冒险 / 运动
◎语  言 英语 / 阿拉伯语 / 意大利语
◎上映日期 1979-10-17
◎IMDb评分  7.4/10 from 10658 users
◎片  长 118 分钟
◎导  演 Carroll Ballard
◎编  剧 Walter Farley / Melissa Mathison
◎主  演 Kelly Reno
      米基·鲁尼 Mickey Rooney
      特瑞·加尔 Teri Garr
      Clarence Muse
      霍伊特·阿克斯顿 Hoyt Axton


◎标  签 美国 | 动物 | 励志 | 黑神驹 | 美国电影 | 儿童 | 经典 | 赛马

◎简  介  

  以《返家十万里》扬名的导演卡罗尔·巴拉德一鸣惊人之作。以戏剧化的抒情风格描述一名男孩在船难中跟黑神驹同时漂流到荒岛上,人与马建立了两位一体的非凡感情。后来他们获救重回人类社会,巧遇老牌马术教练,乃被训练成出色的赛马和小小年纪的骑师,在一次比赛中获得冠军。全片的摄影极为优美动人,尤其当时的童星凯利·里诺在沙滩上跟黑神驹玩耍的场面,在视听效果上呈现出大自然之美的极至。米基·鲁尼饰演的驯马师在片中也占有重要地位,一老一少和马之间的三角互动关系爆发出感人的火花,堪称同类影片中的一流代表作。

◎获奖情况  

  第52届奥斯卡金像奖(1980)
  最佳男配角(提名) 米基·鲁尼
  最佳剪辑(提名) 罗伯特·达尔瓦
  特别成就奖 艾伦·斯普莱特


Video
ID                                       : 1
Format                                   : AVC
Format/Info                              : Advanced Video Codec
Format settings, CABAC                   : Yes
Format settings, ReFrames                : 4 frames
Codec ID                                 : V_MPEG4/ISO/AVC
Duration                                 : 1 h 57 min
Bit rate                                 : 13.1 Mb/s
Width                                    : 1 920 pixels
Height                                   : 1 040 pixels
Display aspect ratio                     : 1.85:1
Frame rate mode                          : Constant
Frame rate                               : 23.976 (24000/1001) FPS
Color space                              : YUV
Chroma subsampling                       : 4:2:0
Bit depth                                : 8 bits
Scan type                                : Progressive
Bits/(Pixel*Frame)                       : 0.274
Stream size                              : 10.8 GiB (90%)
Writing library                          : x264 core 146 r2538 121396c
Encoding settings                        : cabac=1 / ref=4 / deblock=1:0:0 / analyse=0x3:0x133 / me=umh / subme=8 / psy=1 / psy_rd=1.00:0.00 / mixed_ref=1 / me_range=16 / chroma_me=1 / trellis=1 / 8x8dct=1 / cqm=0 / deadzone=21,11 / fast_pskip=0 / chroma_qp_offset=-2 / threads=12 / lookahead_threads=2 / sliced_threads=0 / nr=0 / decimate=1 / interlaced=0 / bluray_compat=0 / constrained_intra=0 / bframes=3 / b_pyramid=2 / b_adapt=1 / b_bias=0 / direct=1 / weightb=1 / open_gop=0 / weightp=2 / keyint=250 / keyint_min=23 / scenecut=40 / intra_refresh=0 / rc_lookahead=40 / rc=2pass / mbtree=1 / bitrate=13132 / ratetol=1.0 / qcomp=0.60 / qpmin=0 / qpmax=69 / qpstep=4 / cplxblur=20.0 / qblur=0.5 / ip_ratio=1.40 / aq=1:1.00
Language                                 : English
Default                                  : Yes
Forced                                   : No

Audio
ID                                       : 2
Format                                   : DTS
Format/Info                              : Digital Theater Systems
Mode                                     : 16
Format settings, Endianness              : Big
Codec ID                                 : A_DTS
Duration                                 : 1 h 57 min
Bit rate mode                            : Constant
Bit rate                                 : 1 509 kb/s
Channel(s)                               : 2 channels
Channel positions                        : Front: L R
Sampling rate                            : 48.0 kHz
Frame rate                               : 93.750 FPS (512 spf)
Bit depth                                : 24 bits
Compression mode                         : Lossy
Stream size                              : 1.24 GiB (10%)
Language                                 : English
Default                                  : Yes
Forced                                   : No



                                                                                                                                                                                                        
                                                                                                                                                                                                                                                                                                                                                                                                                                                                                                                                                                                                                                                                                                                                                                                                                                                        
62713c606f92c87d47eca81d7a625118.torrent (60.7 KB, 下载次数: 8)

回复

使用道具 举报

小黑屋|磁力链接吧 |网站地图

本网站所有资源来自网络,如无意中侵犯了您的权益,请发邮件至 [email protected],立即清除相关链接

GMT+8, 2020-2-28 21:00 , Processed in 3.844380 second(s), 23 queries .

Powered by Discuz! X3.2

© 2001-2013 Comsenz Inc.

快速回复 返回顶部 返回列表