磁力链接吧

 找回密码
 立即注册
搜索

他和她的孤独情事:她/他和她的孤独情事(下) The.Disappearance....

[复制链接]
百度云资源 发表于 2019-7-2 10:05:36 | 显示全部楼层 |阅读模式


帖子完整标题:他和她的孤独情事:她/他和她的孤独情事(下) The.Disappearance.of.Eleanor.Rigby.Her.2014.1080p.BluRay.x264.DD5.1-FGT 8.47GB




◎译  名 他和她的孤独情事:她 / 他和她的孤独情事(下) / 因为爱情:在离开他以后(台) / 离开他以后(港)
◎片  名 The Disappearance of Eleanor Rigby: Her
◎年  代 2013
◎产  地 美国
◎类  别 剧情 / 爱情
◎语  言 英语
◎上映日期 2013-09-09(多伦多电影节) / 2014-10-10(美国)
◎IMDb评分  6.9/10 from 7853 users
◎片  长 106分钟
◎导  演 内德·本森 Ned Benson
◎编  剧 内德·本森 Ned Benson
◎主  演 詹姆斯·麦卡沃伊 James McAvoy
      杰西卡·查斯坦 Jessica Chastain
      妮娜·阿里安达 Nina Arianda
      维奥拉·戴维斯 Viola Davis
      瑞安·艾戈尔德 Ryan Eggold
      比尔·哈德尔 Bill Hader
      塞伦·希德 Ciarán Hinds
      伊莎贝尔·于佩尔 Isabelle Huppert
      威廉·赫特 William Hurt
      凯瑟琳·沃特斯顿 Katherine Waterston
      杰丝·威克斯勒 Jess Weixler


◎标  签 爱情 | 美国 | JamesMcAvoy | 文艺 | JessicaChastain | 剧情 | 2013 | 美国电影

◎简  介  

  《因为爱情》系列电影之一,叙述一对夫妻从相识、相爱、结婚到分离的过程。导演奈德班森从编写剧本直到拍摄,历经整整八年时间,女主角洁西卡雀丝坦在受邀拍摄后,建议他再推出女方版本的《因为爱情:在离开他以后》。
不同于男方版本《因为爱情:在她消失以后》以詹姆斯麦艾维的视角出发,本片描绘洁西卡雀丝坦饰演的伊兰诺因曾经的悸动与浪漫变成空虚迴圈,崩溃地只想逃离婚姻生活。在睿智、洒脱的父母,以及知心好姊妹的相伴下,她振作精神剪了俐落短髮,回到学校决定重新出发。然而,在能真正走出悲伤,展开圆满自在的新生活之前,伊兰诺似乎得先好好整顿对旧情的眷恋…。
Video
ID                                       : 1
Format                                   : AVC
Format/Info                              : Advanced Video Codec
Format settings, CABAC                   : Yes
Format settings, ReFrames                : 4 frames
Codec ID                                 : V_MPEG4/ISO/AVC
Duration                                 : 1 h 45 min
Bit rate                                 : 10.8 Mb/s
Nominal bit rate                         : 11.5 Mb/s
Width                                    : 1 920 pixels
Height                                   : 800 pixels
Display aspect ratio                     : 2.40:1
Frame rate mode                          : Constant
Frame rate                               : 23.976 (24000/1001) FPS
Color space                              : YUV
Chroma subsampling                       : 4:2:0
Bit depth                                : 8 bits
Scan type                                : Progressive
Bits/(Pixel*Frame)                       : 0.293
Stream size                              : 7.97 GiB (94%)
Title                                    : The.Disappearance.of.Eleanor.Rigby.Her.2013.1080p.BluRay.x264.DD5.1-FGT
Writing library                          : x264 core 148 r2748 97eaef2
Encoding settings                        : cabac=1 / ref=4 / deblock=1:-2:-2 / analyse=0x3:0x113 / me=umh / subme=9 / psy=1 / psy_rd=1.00:0.15 / mixed_ref=1 / me_range=16 / chroma_me=1 / trellis=2 / 8x8dct=1 / cqm=0 / deadzone=21,11 / fast_pskip=1 / chroma_qp_offset=-3 / threads=24 / lookahead_threads=3 / sliced_threads=0 / nr=0 / decimate=1 / interlaced=0 / bluray_compat=0 / constrained_intra=0 / bframes=3 / b_pyramid=2 / b_adapt=1 / b_bias=0 / direct=3 / weightb=1 / open_gop=0 / weightp=2 / keyint=250 / keyint_min=25 / scenecut=40 / intra_refresh=0 / rc_lookahead=50 / rc=abr / mbtree=1 / bitrate=11500 / ratetol=1.0 / qcomp=0.60 / qpmin=0 / qpmax=69 / qpstep=4 / vbv_maxrate=31250 / vbv_bufsize=31250 / nal_hrd=none / filler=0 / ip_ratio=1.40 / aq=1:1.00
Language                                 : English
Default                                  : Yes
Forced                                   : No

Audio
ID                                       : 2
Format                                   : AC-3
Format/Info                              : Audio Coding 3
Format settings, Endianness              : Big
Codec ID                                 : A_AC3
Duration                                 : 1 h 45 min
Bit rate mode                            : Constant
Bit rate                                 : 448 kb/s
Channel(s)                               : 6 channels
Channel positions                        : Front: L C R, Side: L R, LFE
Sampling rate                            : 48.0 kHz
Frame rate                               : 31.250 FPS (1536 spf)
Bit depth                                : 16 bits
Compression mode                         : Lossy
Stream size                              : 339 MiB (4%)
Title                                    : The.Disappearance.of.Eleanor.Rigby.Her.2013.1080p.BluRay.x264.DD5.1-FGT
Language                                 : English
Service kind                             : Complete Main
Default                                  : Yes
Forced                                   : No

Text
ID                                       : 3
Format                                   : UTF-8
Codec ID                                 : S_TEXT/UTF8
Codec ID/Info                            : UTF-8 Plain Text
Language                                 : English
Default                                  : Yes
Forced                                   : No

Menu
00:00:00.000                             : en:00:00:00.000
00:08:35.514                             : en:00:08:35.514
00:15:07.907                             : en:00:15:07.907
00:21:33.375                             : en:00:21:33.375
00:27:06.374                             : en:00:27:06.374
00:32:21.689                             : en:00:32:21.689
00:38:24.218                             : en:00:38:24.218
00:46:31.163                             : en:00:46:31.163
00:51:35.383                             : en:00:51:35.383
00:56:36.768                             : en:00:56:36.768
01:03:49.534                             : en:01:03:49.534
01:09:27.246                             : en:01:09:27.246
01:16:29.751                             : en:01:16:29.751
01:22:04.210                             : en:01:22:04.210
01:31:02.248                             : en:01:31:02.248
01:40:10.003                             : en:01:40:10.003
01:45:38.081                             : en:01:45:38.081



                                                                                                                                                                                                        
                                                                                                                                                                                                                                                                                                                                                                                                                                                                                                                                                                                                                                                                                                                                                                                                                                                        
84f25c1fca6d263468381abcf6b735b9.torrent (85.41 KB, 下载次数: 13)

回复

使用道具 举报

小黑屋|磁力链接吧 |网站地图

本网站所有资源来自网络,如无意中侵犯了您的权益,请发邮件至 [email protected],立即清除相关链接

GMT+8, 2020-9-24 01:47 , Processed in 0.131585 second(s), 23 queries .

Powered by Discuz! X3.2

© 2001-2013 Comsenz Inc.

快速回复 返回顶部 返回列表