磁力链接吧

 找回密码
 立即注册
搜索

他和她的孤独情事 The.Disappearance.of.Eleanor.Rigby.Them.2014.1080p.B...

[复制链接]
百度云资源 发表于 2019-7-2 10:05:36 | 显示全部楼层 |阅读模式


帖子完整标题:他和她的孤独情事 The.Disappearance.of.Eleanor.Rigby.Them.2014.1080p.BluRay.x264-GECKOS 8.74GB




◎译  名 他和她的孤独情事 / The Disappearance of Eleanor Rigby / The Disappearance of Eleanor Rigby: Him and Her / 他和她的孤独情事:他们
◎片  名 The Disappearance of Eleanor Rigby: Them
◎年  代 2014
◎产  地 美国
◎类  别 剧情 / 爱情
◎语  言 英语
◎上映日期 2014-05-17(戛纳电影节) / 2014-09-12(美国)
◎IMDb评分  6.3/10 from 10835 users
◎片  长 123分钟
◎导  演 内德·本森 Ned Benson
◎编  剧 内德·本森 Ned Benson
◎主  演 詹姆斯·麦卡沃伊 James McAvoy
      杰西卡·查斯坦 Jessica Chastain
      妮娜·阿里安达 Nina Arianda
      维奥拉·戴维斯 Viola Davis
      比尔·哈德尔 Bill Hader
      塞伦·希德 Ciarán Hinds
      伊莎贝尔·于佩尔 Isabelle Huppert
      威廉·赫特 William Hurt
      杰丝·威克斯勒 Jess Weixler
      尼克·詹姆斯·米歇尔 Nikki Michelle James
      Jeremy Shamos


◎标  签 爱情 | 美国 | jamesmcavoy | JamesMcAvoy | 剧情 | 美国电影 | 詹姆斯·麦卡沃伊 | 2014

◎简  介  

  该片讲述了一对住在纽约的夫妇经历婚姻危机的故事,麦卡沃伊饰演一家餐馆的老板,而查斯坦则饰演他的妻子,一位婚后重回大学读书的女人。影片最大的特点就是将有两个剧本,拍成两部影片,一部以丈夫的视角进行叙事,而另一部则以妻子的视角来叙事,均由内德·本森担任编剧和导演。

◎获奖情况  

  第67届戛纳电影节(2014)
  金摄影机奖(导演处女作奖)(提名) 内德·本森
  一种关注单元 一种关注大奖(提名) 内德·本森


Video
ID                                       : 1
Format                                   : AVC
Format/Info                              : Advanced Video Codec
Format settings                          : CABAC / 5 Ref Frames
Format settings, CABAC                   : Yes
Format settings, ReFrames                : 5 frames
Codec ID                                 : V_MPEG4/ISO/AVC
Duration                                 : 2 h 2 min
Bit rate                                 : 8 676 kb/s
Width                                    : 1 920 pixels
Height                                   : 808 pixels
Display aspect ratio                     : 2.40:1
Frame rate mode                          : Constant
Frame rate                               : 23.976 FPS
Color space                              : YUV
Chroma subsampling                       : 4:2:0
Bit depth                                : 8 bits
Scan type                                : Progressive
Bits/(Pixel*Frame)                       : 0.233
Stream size                              : 7.27 GiB (83%)
Writing library                          : x264 core 144 r2525 40bb568
Encoding settings                        : cabac=1 / ref=5 / deblock=1:0:0 / analyse=0x3:0x133 / me=umh / subme=7 / psy=1 / psy_rd=1.00:0.00 / mixed_ref=1 / me_range=16 / chroma_me=1 / trellis=1 / 8x8dct=1 / cqm=0 / deadzone=21,11 / fast_pskip=0 / chroma_qp_offset=-2 / threads=18 / lookahead_threads=3 / sliced_threads=0 / nr=0 / decimate=1 / interlaced=0 / bluray_compat=0 / constrained_intra=0 / bframes=3 / b_pyramid=2 / b_adapt=1 / b_bias=0 / direct=1 / weightb=1 / open_gop=0 / weightp=2 / keyint=250 / keyint_min=23 / scenecut=40 / intra_refresh=0 / rc_lookahead=40 / rc=2pass / mbtree=1 / bitrate=8676 / ratetol=1.0 / qcomp=0.60 / qpmin=0 / qpmax=69 / qpstep=4 / cplxblur=20.0 / qblur=0.5 / ip_ratio=1.40 / aq=1:1.00
Language                                 : English
Default                                  : Yes
Forced                                   : No

Audio
ID                                       : 2
Format                                   : DTS
Format/Info                              : Digital Theater Systems
Codec ID                                 : A_DTS
Duration                                 : 2 h 2 min
Bit rate mode                            : Constant
Bit rate                                 : 1 509 kb/s
Channel(s)                               : 6 channels
Channel positions                        : Front: L C R, Side: L R, LFE
Sampling rate                            : 48.0 kHz
Frame rate                               : 93.750 FPS (512 SPF)
Bit depth                                : 24 bits
Compression mode                         : Lossy
Stream size                              : 1.30 GiB (15%)
Language                                 : English
Default                                  : Yes
Forced                                   : No

Menu
00:00:00.000                             : en:00:00:00.000
00:04:30.687                             : en:00:04:30.687
00:10:32.590                             : en:00:10:32.590
00:14:50.681                             : en:00:14:50.681
00:21:25.451                             : en:00:21:25.451
00:27:22.474                             : en:00:27:22.474
00:33:59.120                             : en:00:33:59.120
00:41:08.091                             : en:00:41:08.091
00:48:45.381                             : en:00:48:45.381
00:54:49.703                             : en:00:54:49.703
01:02:59.859                             : en:01:02:59.859
01:12:27.927                             : en:01:12:27.927
01:19:12.998                             : en:01:19:12.998
01:25:15.944                             : en:01:25:15.944
01:30:20.332                             : en:01:30:20.332
01:34:38.172                             : en:01:34:38.172
01:39:10.194                             : en:01:39:10.194
01:47:05.878                             : en:01:47:05.878
01:53:27.467                             : en:01:53:27.467
01:57:09.522                             : en:01:57:09.522



                                                                                                                                                                                                        
                                                                                                                                                                                                                                                                                                                                                                                                                                                                                                                                                                                                                                                                                                                                                                                                                                                        
226427bbc4dbb905d3690dab9063955e.torrent (87.97 KB, 下载次数: 15)

回复

使用道具 举报

小黑屋|磁力链接吧 |网站地图

本网站所有资源来自网络,如无意中侵犯了您的权益,请发邮件至 [email protected],立即清除相关链接

GMT+8, 2020-9-24 03:24 , Processed in 0.119782 second(s), 23 queries .

Powered by Discuz! X3.2

© 2001-2013 Comsenz Inc.

快速回复 返回顶部 返回列表