磁力链接吧

 找回密码
 立即注册
搜索

最后的迪斯科/迪斯可末日 The.Last.Days.Of.Disco.1998.1080p.BluRay.x...

[复制链接]
百度云资源 发表于 2019-7-2 10:05:36 | 显示全部楼层 |阅读模式


帖子完整标题:最后的迪斯科/迪斯可末日 The.Last.Days.Of.Disco.1998.1080p.BluRay.x264-Japhson 7.94GB




◎译  名 最后的迪斯科 / 迪斯可末日 / 迪斯科时代
◎片  名 The Last Days of Disco
◎年  代 1998
◎产  地 美国
◎类  别 剧情 / 喜剧 / 爱情 / 音乐
◎语  言 英语
◎上映日期 1998-05-29
◎IMDb评分  6.7/10 from 11367 users
◎片  长 113 分钟
◎导  演 Whit Stillman
◎编  剧 Whit Stillman
◎主  演 Chlo? Sevigny
      Kate Beckinsale
      Chris Eigeman
      Mackenzie Astin
      Matt Keeslar
      Robert Sean Leonard
      Jennifer Beals


◎标  签 美国 | 美国电影 | 1990s | CC | 1998 | KateBeckinsale | Whit_Stillman | Chlo?Sevigny

◎简  介  

  斯蒂尔曼自编自导的风尚喜剧。亦是其“都会三部曲”的完结篇。讲述出浴迪斯科热潮末期的两个女人在俱乐部里寻找爱情的故事。主演是电影圈的时尚达人Chloe Sevigny。
Video
ID                                       : 1
Format                                   : AVC
Format/Info                              : Advanced Video Codec
Format settings, CABAC                   : Yes
Format settings, ReFrames                : 4 frames
Codec ID                                 : V_MPEG4/ISO/AVC
Duration                                 : 1 h 53 min
Bit rate                                 : 8 465 kb/s
Width                                    : 1 920 pixels
Height                                   : 1 080 pixels
Display aspect ratio                     : 16:9
Frame rate mode                          : Constant
Frame rate                               : 23.976 (24000/1001) FPS
Color space                              : YUV
Chroma subsampling                       : 4:2:0
Bit depth                                : 8 bits
Scan type                                : Progressive
Bits/(Pixel*Frame)                       : 0.170
Stream size                              : 6.58 GiB (83%)
Writing library                          : x264 core 129 r2230 1cffe9f
Encoding settings                        : cabac=1 / ref=4 / deblock=1:-1:-1 / analyse=0x3:0x113 / me=umh / subme=7 / psy=1 / psy_rd=1.00:0.00 / mixed_ref=1 / me_range=16 / chroma_me=1 / trellis=1 / 8x8dct=1 / cqm=0 / deadzone=21,11 / fast_pskip=1 / chroma_qp_offset=-2 / threads=12 / lookahead_threads=2 / sliced_threads=0 / nr=0 / decimate=1 / interlaced=0 / bluray_compat=0 / constrained_intra=0 / bframes=3 / b_pyramid=2 / b_adapt=2 / b_bias=0 / direct=3 / weightb=1 / open_gop=0 / weightp=2 / keyint=250 / keyint_min=23 / scenecut=40 / intra_refresh=0 / rc_lookahead=40 / rc=2pass / mbtree=1 / bitrate=8465 / ratetol=1.0 / qcomp=0.60 / qpmin=0 / qpmax=69 / qpstep=4 / cplxblur=20.0 / qblur=0.5 / vbv_maxrate=50000 / vbv_bufsize=50000 / nal_hrd=none / ip_ratio=1.40 / aq=1:1.00
Language                                 : English
Default                                  : Yes
Forced                                   : No

Audio
ID                                       : 2
Format                                   : DTS
Format/Info                              : Digital Theater Systems
Mode                                     : 16
Format settings, Endianness              : Big
Codec ID                                 : A_DTS
Duration                                 : 1 h 53 min
Bit rate mode                            : Constant
Bit rate                                 : 1 509 kb/s
Channel(s)                               : 6 channels
Channel positions                        : Front: L C R, Side: L R, LFE
Sampling rate                            : 48.0 kHz
Frame rate                               : 93.750 FPS (512 spf)
Bit depth                                : 24 bits
Compression mode                         : Lossy
Stream size                              : 1.20 GiB (15%)
Language                                 : English
Default                                  : Yes
Forced                                   : No



                                                                                                                                                                                                        
                                                                                                                                                                                                                                                                                                                                                                                                                                                                                                                                                                                                                                                                                                                                                                                                                                                        
f07efbd09ab37070563119b07b1e6ce2.torrent (79.9 KB, 下载次数: 1)

回复

使用道具 举报

小黑屋|磁力链接吧 |网站地图

本网站所有资源来自网络,如无意中侵犯了您的权益,请发邮件至 [email protected],立即清除相关链接

GMT+8, 2020-9-24 03:41 , Processed in 0.150509 second(s), 23 queries .

Powered by Discuz! X3.2

© 2001-2013 Comsenz Inc.

快速回复 返回顶部 返回列表