磁力链接吧

 找回密码
 立即注册
搜索

野鹅敢死队/野雁突击队 The.Wild.Geese.1978.1080p.BluRay.x264-THUGLiN...

[复制链接]
百度云资源 发表于 2019-7-2 10:05:36 | 显示全部楼层 |阅读模式


帖子完整标题:野鹅敢死队/野雁突击队 The.Wild.Geese.1978.1080p.BluRay.x264-THUGLiNE 10.93GB




◎译  名 野鹅敢死队 / 野雁突击队
◎片  名 The Wild Geese
◎年  代 1978
◎产  地 英国 / 瑞士
◎类  别 剧情 / 动作 / 战争 / 冒险
◎语  言 英语
◎上映日期 1978-08-07(英国) / 1986-03(中国大陆)
◎IMDb评分  6.8/10 from 10775 users
◎片  长 134 分钟
◎导  演 Andrew V. McLaglen
◎编  剧 Reginald Rose
◎主  演 Richard Burton
      Roger Moore
      Richard Harris
      Hardy Krüger
      Stewart Granger


◎标  签 战争 | 英国 | 经典 | 英国电影 | 动作 | 1978 | 二战 | 电影

◎简  介  

  福克纳上校(理查德·伯顿 Richard Burton 饰)受雇于著名银行家爱德华爵士(斯图尔特·格兰杰 Stewart Granger 饰),要去解救非洲自由斗士林班尼(Winston Ntshona 饰),然而,私下里,爱德华爵士和独裁者切恩有一个秘密的交易,要以林班尼来交换非洲某国的铜矿开采权。
被蒙在鼓里的福克纳上校召集了昔日战友,组建了一支战斗力极强的敢死队,命名为野鹅敢死队,在经过了一系列紧张的训练后,一行人踌躇满志地踏上了他们的“战场”。在成功解救林班尼,准备撤离之时,福克纳上校却发现他们被本来该来接应的运输机放了鸽子。聪明的福克纳上校很快就明白了究竟发生了什么,现在最重要的,就是生存下去。
Video
ID                                       : 1
Format                                   : AVC
Format/Info                              : Advanced Video Codec
Format settings, CABAC                   : Yes
Format settings, ReFrames                : 4 frames
Codec ID                                 : V_MPEG4/ISO/AVC
Duration                                 : 2h 14mn
Bit rate                                 : 10.1 Mbps
Width                                    : 1 920 pixels
Height                                   : 1 040 pixels
Display aspect ratio                     : 1.85:1
Frame rate mode                          : Constant
Frame rate                               : 23.976 fps
Color space                              : YUV
Chroma subsampling                       : 4:2:0
Bit depth                                : 8 bits
Scan type                                : Progressive
Bits/(Pixel*Frame)                       : 0.212
Stream size                              : 9.30 GiB (85%)
Writing library                          : x264 core 94 r1570 d9db8b3
Encoding settings                        : cabac=1 / ref=4 / deblock=1:0:0 / analyse=0x3:0x133 / me=umh / subme=7 / psy=1 / psy_rd=1.00:0.00 / mixed_ref=1 / me_range=16 / chroma_me=1 / trellis=1 / 8x8dct=1 / cqm=0 / deadzone=21,11 / fast_pskip=0 / chroma_qp_offset=-2 / threads=12 / sliced_threads=0 / nr=0 / decimate=1 / interlaced=0 / constrained_intra=0 / bframes=3 / b_pyramid=2 / b_adapt=1 / b_bias=0 / direct=1 / wpredb=1 / wpredp=2 / keyint=250 / keyint_min=25 / scenecut=40 / intra_refresh=0 / rc_lookahead=40 / rc=2pass / mbtree=1 / bitrate=10134 / ratetol=1.0 / qcomp=0.60 / qpmin=10 / qpmax=51 / qpstep=4 / cplxblur=20.0 / qblur=0.5 / ip_ratio=1.40 / aq=1:1.00
Language                                 : English
Default                                  : No
Forced                                   : No

Audio
ID                                       : 2
Format                                   : DTS
Format/Info                              : Digital Theater Systems
Mode                                     : 16
Format settings, Endianness              : Big
Codec ID                                 : A_DTS
Duration                                 : 2h 14mn
Bit rate mode                            : Constant
Bit rate                                 : 1 509 Kbps
Channel(s)                               : 2 channels
Channel positions                        : Front: L R
Sampling rate                            : 48.0 KHz
Frame rate                               : 93.750 fps (512 spf)
Bit depth                                : 16 bits
Compression mode                         : Lossy
Stream size                              : 1.42 GiB (13%)
Language                                 : English
Default                                  : Yes
Forced                                   : No



                                                                                                                                                                                                        
                                                                                                                                                                                                                                                                                                                                                                                                                                                                                                                                                                                                                                                                                                                                                                                                                                                        
b749fc0120833f16cd7d4a5685de0bb1.torrent (55.21 KB, 下载次数: 15)

回复

使用道具 举报

小黑屋|磁力链接吧 |网站地图

本网站所有资源来自网络,如无意中侵犯了您的权益,请发邮件至 [email protected],立即清除相关链接

GMT+8, 2020-2-25 01:55 , Processed in 0.069566 second(s), 23 queries .

Powered by Discuz! X3.2

© 2001-2013 Comsenz Inc.

快速回复 返回顶部 返回列表