磁力链接吧

 找回密码
 立即注册
搜索

火线 Threads.1984.1080p.BluRay.X264-AMIABLE 12.03GB

[复制链接]
百度云资源 发表于 2019-7-2 10:05:36 | 显示全部楼层 |阅读模式


帖子完整标题:火线 Threads.1984.1080p.BluRay.X264-AMIABLE 12.03GB




◎译  名 火线
◎片  名 Threads
◎年  代 1984
◎产  地 UK / Australia / 美国
◎类  别 剧情 / 科幻 / 战争
◎语  言 英语
◎上映日期 1984-09-23(英国)
◎IMDb评分  8.1/10 from 9980 users
◎片  长 117分钟
◎导  演 米克·杰克逊 Mick Jackson
◎编  剧 巴里·海因斯 Barry Hines
◎主  演 Brian Grellis
      June Broughton
      Dean Williamson


◎标  签 英国 | 科幻 | 战争 | 灾难 | 伪纪录片 | 1984 | 英国电影 | 1980s

◎简  介  

  1980年代中期的冷战时期,英国谢菲尔德市的居民鲁思·贝克特和吉米·坎普正在为即将到来的婚姻和第一个孩子的出生做准备,谢菲尔德是皇家空军基地的所在地,拥有主要的钢铁、能源和化工生产基地。但是苏联向伊朗进军,计划将其转变为苏联的卫星国。美国、英国以及北约和联合国的其他成员 愤怒地谴责苏联的侵略和军事活动,尤其是在附近的R.A.F.基地,露丝和吉米的家人忙于他们的日常事务,很少关注伊朗发生的事情,一个春日,没有任何警告,苏联用ICBMs袭击了英国——其中两个袭击了谢菲尔德,摧毁了大部分建筑和居民,但更可怕的是随之而来的后果——一个没有公共秩序的世界,没有干净的食物、水、电,也没有能力生产其中任何一种。露丝挣扎了10多年才在这个可怕的,贫瘠的,放射性的国土上生存……
Video
ID                                       : 1
Format                                   : AVC
Format/Info                              : Advanced Video Codec
Format settings                          : CABAC / 5 Ref Frames
Format settings, CABAC                   : Yes
Format settings, RefFrames               : 5 frames
Codec ID                                 : V_MPEG4/ISO/AVC
Duration                                 : 1 h 57 min
Bit rate                                 : 13.2 Mb/s
Width                                    : 1 440 pixels
Height                                   : 1 080 pixels
Display aspect ratio                     : 4:3
Frame rate mode                          : Constant
Frame rate                               : 23.976 (24000/1001) FPS
Color space                              : YUV
Chroma subsampling                       : 4:2:0
Bit depth                                : 8 bits
Scan type                                : Progressive
Bits/(Pixel*Frame)                       : 0.353
Stream size                              : 10.5 GiB (88%)
Writing library                          : x264 core 155 r2901 7d0ff22
Encoding settings                        : cabac=1 / ref=5 / deblock=1:-3:-3 / analyse=0x3:0x113 / me=umh / subme=8 / psy=1 / psy_rd=1.12:0.00 / mixed_ref=1 / me_range=32 / chroma_me=1 / trellis=2 / 8x8dct=1 / cqm=0 / deadzone=21,11 / fast_pskip=1 / chroma_qp_offset=-2 / threads=24 / lookahead_threads=4 / sliced_threads=0 / nr=0 / decimate=1 / interlaced=0 / bluray_compat=0 / constrained_intra=0 / bframes=3 / b_pyramid=2 / b_adapt=2 / b_bias=0 / direct=3 / weightb=1 / open_gop=0 / weightp=2 / keyint=240 / keyint_min=24 / scenecut=40 / intra_refresh=0 / rc_lookahead=50 / rc=2pass / mbtree=1 / bitrate=13180 / ratetol=1.0 / qcomp=0.60 / qpmin=0 / qpmax=69 / qpstep=4 / cplxblur=20.0 / qblur=0.5 / ip_ratio=1.40 / aq=3:0.75
Default                                  : Yes
Forced                                   : No
Statistics Tags Issue                    : no_variable_data 1970-01-01 00:00:00 / no_variable_data 2010-02-22 21:41:29
FromStats_BitRate                        : 13175940
FromStats_Duration                       : 01:57:10.607000000
FromStats_FrameCount                     : 168566
FromStats_StreamSize                     : 11579357091

Audio
ID                                       : 2
Format                                   : DTS
Format/Info                              : Digital Theater Systems
Mode                                     : 16
Format settings, Endianness              : Big
Codec ID                                 : A_DTS
Duration                                 : 1 h 57 min
Bit rate mode                            : Constant
Bit rate                                 : 1 509 kb/s
Channel(s)                               : 2 channels
Channel positions                        : Front: L R
Sampling rate                            : 48.0 kHz
Frame rate                               : 93.750 FPS (512 SPF)
Bit depth                                : 24 bits
Compression mode                         : Lossy
Stream size                              : 1.24 GiB (10%)
Language                                 : English
Default                                  : Yes
Forced                                   : No
Statistics Tags Issue                    : no_variable_data 1970-01-01 00:00:00 / no_variable_data 2010-02-22 21:41:29
FromStats_BitRate                        : 1508999
FromStats_Duration                       : 01:57:10.571000000
FromStats_FrameCount                     : 659116
FromStats_StreamSize                     : 1326141392

Text #1
ID                                       : 3
Format                                   : UTF-8
Codec ID                                 : S_TEXT/UTF8
Codec ID/Info                            : UTF-8 Plain Text
Language                                 : English
Default                                  : No
Forced                                   : No
Statistics Tags Issue                    : no_variable_data 1970-01-01 00:00:00 / no_variable_data 2010-02-22 21:41:29
FromStats_BitRate                        : 54
FromStats_Duration                       : 01:54:20.145000000
FromStats_FrameCount                     : 1552
FromStats_StreamSize                     : 47123

Text #2
ID                                       : 4
Format                                   : UTF-8
Codec ID                                 : S_TEXT/UTF8
Codec ID/Info                            : UTF-8 Plain Text
Title                                    : SDH
Language                                 : English
Default                                  : No
Forced                                   : No
Statistics Tags Issue                    : no_variable_data 1970-01-01 00:00:00 / no_variable_data 2010-02-22 21:41:29
FromStats_BitRate                        : 59
FromStats_Duration                       : 01:54:29.863000000
FromStats_FrameCount                     : 1749
FromStats_StreamSize                     : 51280

Menu
00:00:00.000                             : en:00:00:00.000
00:08:15.745                             : en:00:08:15.745
00:23:24.820                             : en:00:23:24.820
00:35:21.202                             : en:00:35:21.202
00:47:38.105                             : en:00:47:38.105
01:09:42.845                             : en:01:09:42.845
01:26:27.224                             : en:01:26:27.224
01:44:57.958                             : en:01:44:57.958
01:54:43.377                             : en:01:54:43.377



                                                                                                                                                                                                        
                                                                                                                                                                                                                                                                                                                                                                                                                                                                                                                                                                                                                                                                                                                                                                                                                                                        
f648fafbd147d4575a3ba2f93eb1f0cd.torrent (60.89 KB, 下载次数: 4)

回复

使用道具 举报

小黑屋|磁力链接吧 |网站地图

本网站所有资源来自网络,如无意中侵犯了您的权益,请发邮件至 [email protected],立即清除相关链接

GMT+8, 2020-9-24 03:57 , Processed in 0.124374 second(s), 23 queries .

Powered by Discuz! X3.2

© 2001-2013 Comsenz Inc.

快速回复 返回顶部 返回列表