磁力链接吧

 找回密码
 立即注册
搜索

危险第三情 Unlawful.Entry.1992.1080p.BluRay.X264-AMIABLE 8.74GB

[复制链接]
百度云资源 发表于 2019-7-2 10:05:36 | 显示全部楼层 |阅读模式


帖子完整标题:危险第三情 Unlawful.Entry.1992.1080p.BluRay.X264-AMIABLE 8.74GB




◎译  名 危险第三情
◎片  名 Unlawful Entry
◎年  代 1992
◎产  地 美国 / 日本
◎类  别 剧情 / 惊悚 / 犯罪
◎语  言 英语
◎上映日期 1992-06-26
◎IMDb评分  6.3/10 from 13363 users
◎导  演 乔纳森·卡普兰 Jonathan Kaplan
◎编  剧 George Putnam / John Katchmer / Lewis Colick
◎主  演 库尔特·拉塞尔 Kurt Russell
      雷·利奥塔 Ray Liotta
      玛德琳·斯托 Madeleine Stowe


◎标  签 犯罪 | 美国 | 惊悚 | 玛德琳·斯托 | 美国电影 | 剧情 | 悬疑 | 美國

◎简  介  

  一位是年轻富有的少妇,另一位是意乱情迷的男人,不设防的激情,两人一触即发,他们正步向疯狂的毁灭边缘……信赖的守护神竟然是撩拨激情的刽子手?
Video
ID                                       : 1
Format                                   : AVC
Format/Info                              : Advanced Video Codec
Format settings, CABAC                   : Yes
Format settings, ReFrames                : 4 frames
Codec ID                                 : V_MPEG4/ISO/AVC
Duration                                 : 1 h 51 min
Bit rate                                 : 9 695 kb/s
Width                                    : 1 920 pixels
Height                                   : 1 080 pixels
Display aspect ratio                     : 16:9
Frame rate mode                          : Constant
Frame rate                               : 23.976 (24000/1001) FPS
Color space                              : YUV
Chroma subsampling                       : 4:2:0
Bit depth                                : 8 bits
Scan type                                : Progressive
Bits/(Pixel*Frame)                       : 0.195
Stream size                              : 7.39 GiB (85%)
Writing library                          : x264 core 148 r2744 b97ae06
Encoding settings                        : cabac=1 / ref=4 / deblock=1:-3:-3 / analyse=0x3:0x113 / me=umh / subme=8 / psy=1 / psy_rd=1.10:0.00 / mixed_ref=1 / me_range=16 / chroma_me=1 / trellis=1 / 8x8dct=1 / cqm=0 / deadzone=21,11 / fast_pskip=1 / chroma_qp_offset=-2 / threads=24 / lookahead_threads=4 / sliced_threads=0 / nr=0 / decimate=1 / interlaced=0 / bluray_compat=0 / constrained_intra=0 / bframes=3 / b_pyramid=2 / b_adapt=2 / b_bias=0 / direct=3 / weightb=1 / open_gop=0 / weightp=2 / keyint=240 / keyint_min=24 / scenecut=40 / intra_refresh=0 / rc_lookahead=50 / rc=2pass / mbtree=1 / bitrate=9695 / ratetol=1.0 / qcomp=0.60 / qpmin=0 / qpmax=69 / qpstep=4 / cplxblur=20.0 / qblur=0.5 / ip_ratio=1.40 / aq=3:0.75
Default                                  : Yes
Forced                                   : No
Statistics Tags Issue                    : no_variable_data 1970-01-01 00:00:00 / no_variable_data 2010-02-22 21:41:29
FromStats_BitRate                        : 9695249
FromStats_Duration                       : 01:51:43.030000000
FromStats_FrameCount                     : 160712
FromStats_StreamSize                     : 8123443299

Audio
ID                                       : 2
Format                                   : DTS
Format/Info                              : Digital Theater Systems
Mode                                     : 16
Format settings, Endianness              : Big
Codec ID                                 : A_DTS
Duration                                 : 1 h 51 min
Bit rate mode                            : Constant
Bit rate                                 : 1 509 kb/s
Channel(s)                               : 6 channels
Channel positions                        : Front: L C R, Side: L R, LFE
Sampling rate                            : 48.0 kHz
Frame rate                               : 93.750 FPS (512 spf)
Bit depth                                : 24 bits
Compression mode                         : Lossy
Stream size                              : 1.18 GiB (13%)
Language                                 : English
Default                                  : Yes
Forced                                   : No
Statistics Tags Issue                    : no_variable_data 1970-01-01 00:00:00 / no_variable_data 2010-02-22 21:41:29
FromStats_BitRate                        : 1509000
FromStats_Duration                       : 01:51:43.040000000
FromStats_FrameCount                     : 628410
FromStats_StreamSize                     : 1264360920

Menu
00:00:00.000                             : en:00:00:00.000
00:09:30.695                             : en:00:09:30.695
00:18:20.433                             : en:00:18:20.433
00:27:43.704                             : en:00:27:43.704
00:36:17.425                             : en:00:36:17.425
00:47:14.999                             : en:00:47:14.999
00:59:12.215                             : en:00:59:12.215
01:06:26.065                             : en:01:06:26.065
01:14:36.013                             : en:01:14:36.013
01:24:33.610                             : en:01:24:33.610
01:33:35.109                             : en:01:33:35.109
01:44:11.954                             : en:01:44:11.954



                                                                                                                                                                                                        
                                                                                                                                                                                                                                                                                                                                                                                                                                                                                                                                                                                                                                                                                                                                                                                                                                                        
60b0667e7e98cdeae7c3907795763fb1.torrent (88.05 KB, 下载次数: 11)

回复

使用道具 举报

小黑屋|磁力链接吧 |网站地图

本网站所有资源来自网络,如无意中侵犯了您的权益,请发邮件至 [email protected],立即清除相关链接

GMT+8, 2020-2-28 19:45 , Processed in 0.141434 second(s), 23 queries .

Powered by Discuz! X3.2

© 2001-2013 Comsenz Inc.

快速回复 返回顶部 返回列表