磁力链接吧

 找回密码
 立即注册
搜索

翼/冲天有翼 Wings.1927.1080p.BluRay.x264-CiNEFiLE 9.83GB

[复制链接]
百度云资源 发表于 2019-7-2 10:05:36 | 显示全部楼层 |阅读模式


帖子完整标题:翼/冲天有翼 Wings.1927.1080p.BluRay.x264-CiNEFiLE 9.83GB




◎译  名 翼 / 冲天有翼 / 比翼情天 / 铁翼雄风
◎片  名 Wings
◎年  代 1927
◎产  地 美国
◎类  别 剧情 / 动作 / 爱情 / 战争
◎语  言 英语
◎上映日期 1927-08-12
◎IMDb评分  7.7/10 from 10172 users
◎片  长 139 分钟
◎导  演 William A. Wellman
◎编  剧 Hope Loring / Louis D. Lighton
◎主  演 Clara Bow
      Charles 'Buddy' Rogers
      Richard Arlen
      Jobyna Ralston
      Gary Cooper


◎标  签 美国 | 默片 | 战争 | 奥斯卡最佳影片 | 1927 | 奥斯卡 | 黑白 | 爱情

◎简  介  

  故事发生在第一次世界大战期间,玛丽(克拉拉·鲍 Clara Bow 饰)暗恋着英俊的杰克(查尔斯·巴德·罗杰斯 Charles 'Buddy' Rogers 饰),可是杰克的心思却全部放在了大小姐西尔维娅(乔拜娜·劳斯顿 Jobyna Ralston 饰)身上,无奈西尔维娅亦有她的心上人,那就是富家子弟大卫(理查德·阿伦 Richard Arlen 饰)。
战争爆发了,大卫和杰克投身军队为国家效力,在军中,身为情敌的两人关系渐渐紧密,之后成为了挚友。一场激烈的战役中,大卫遭遇了意外,悲痛的杰克决心为朋友报仇。然而,杰克并不知道的是,大卫没有死,他甚至偷到了一架敌机。正当大卫喜滋滋地驾驶着敌机返回营地之时,与为朋友报仇心切的杰克撞了个正着。

◎获奖情况  

  第1届奥斯卡金像奖(1929)
  最佳作品奖
  最佳技术效果 Roy Pomeroy


Video
ID                                       : 1
Format                                   : AVC
Format/Info                              : Advanced Video Codec
Format settings, CABAC                   : Yes
Format settings, ReFrames                : 4 frames
Muxing mode                              : Header stripping
Codec ID                                 : V_MPEG4/ISO/AVC
Duration                                 : 2h 24mn
Bit rate                                 : 8 251 Kbps
Width                                    : 1 440 pixels
Height                                   : 1 080 pixels
Display aspect ratio                     : 4:3
Frame rate mode                          : Constant
Frame rate                               : 23.976 fps
Color space                              : YUV
Chroma subsampling                       : 4:2:0
Bit depth                                : 8 bits
Scan type                                : Progressive
Bits/(Pixel*Frame)                       : 0.221
Stream size                              : 8.12 GiB (83%)
Title                                    : Video
Writing library                          : x264 core 125 r2200 999b753
Encoding settings                        : cabac=1 / ref=4 / deblock=1:0:0 / analyse=0x3:0x133 / me=umh / subme=7 / psy=1 / psy_rd=1.00:0.00 / mixed_ref=1 / me_range=16 / chroma_me=1 / trellis=1 / 8x8dct=1 / cqm=0 / deadzone=21,11 / fast_pskip=0 / chroma_qp_offset=-2 / threads=12 / lookahead_threads=2 / sliced_threads=0 / nr=0 / decimate=1 / interlaced=0 / bluray_compat=0 / constrained_intra=0 / bframes=3 / b_pyramid=2 / b_adapt=2 / b_bias=0 / direct=3 / weightb=1 / open_gop=0 / weightp=2 / keyint=250 / keyint_min=23 / scenecut=40 / intra_refresh=0 / rc_lookahead=50 / rc=2pass / mbtree=1 / bitrate=8251 / ratetol=1.0 / qcomp=0.60 / qpmin=0 / qpmax=69 / qpstep=4 / cplxblur=20.0 / qblur=0.5 / ip_ratio=1.40 / aq=1:1.00
Language                                 : English
Default                                  : Yes
Forced                                   : Yes

Audio
ID                                       : 2
Format                                   : DTS
Format/Info                              : Digital Theater Systems
Mode                                     : 16
Format settings, Endianness              : Big
Muxing mode                              : Header stripping
Codec ID                                 : A_DTS
Duration                                 : 2h 24mn
Bit rate mode                            : Constant
Bit rate                                 : 1 509 Kbps
Channel(s)                               : 6 channels
Channel positions                        : Front: L C R, Side: L R, LFE
Sampling rate                            : 48.0 KHz
Frame rate                               : 93.750 fps (512 spf)
Bit depth                                : 24 bits
Compression mode                         : Lossy
Stream size                              : 1.52 GiB (15%)
Title                                    : audio - english
Language                                 : English
Default                                  : Yes
Forced                                   : Yes



                                                                                                                                                                                                        
                                                                                                                                                                                                                                                                                                                                                                                                                                                                                                                                                                                                                                                                                                                                                                                                                                                        
740842d8dc148745f5ced35fc015bed0.torrent (98.93 KB, 下载次数: 14)

回复

使用道具 举报

小黑屋|磁力链接吧 |网站地图

本网站所有资源来自网络,如无意中侵犯了您的权益,请发邮件至 [email protected],立即清除相关链接

GMT+8, 2020-9-24 03:17 , Processed in 0.125727 second(s), 23 queries .

Powered by Discuz! X3.2

© 2001-2013 Comsenz Inc.

快速回复 返回顶部 返回列表