磁力链接吧

 找回密码
 立即注册
搜索

回溯 Backtrack.2015.1080p.BluRay.X264-AMIABLE 5.46GB

[复制链接]
百度云资源 发表于 2019-7-2 10:05:36 | 显示全部楼层 |阅读模式


帖子完整标题:回溯 Backtrack.2015.1080p.BluRay.X264-AMIABLE 5.46GB




◎译  名 回溯
◎片  名 Backtrack
◎年  代 2015
◎产  地 澳大利亚
◎类  别 悬疑 / 惊悚
◎语  言 英语
◎上映日期 2015-04-18(翠贝卡电影节) / 2016-01-29(英国)
◎IMDb评分  5.9/10 from 10614 users
◎片  长 90分钟
◎导  演 迈克尔·彼得罗尼 Michael Petroni
◎编  剧 迈克尔·彼得罗尼 Michael Petroni
◎主  演 艾德里安·布洛迪 Adrien Brody
      山姆·尼尔 Sam Neill
      罗宾·麦克丽薇 Robin McLeavy
      布鲁斯·斯宾斯 Bruce Spence
      苏西·斯蒂恩 Suzie Steen
      Anna Lise Phillips
      Matthew Sunderland
      Greg Poppleton


◎标  签 悬疑 | 惊悚 | 澳大利亚 | 心理 | 恐怖 | 2016 | 犯罪 | 人性

◎简  介  

  影片围绕着心理学家皮特与他被“鬼混”侵扰的病人之间展开,随着病情研究的深入,隐藏在恐惧背后的可怕事件也将渐渐浮出水面。
Video
ID                                       : 1
Format                                   : AVC
Format/Info                              : Advanced Video Codec
Format settings                          : CABAC / 5 Ref Frames
Format settings, CABAC                   : Yes
Format settings, ReFrames                : 5 frames
Codec ID                                 : V_MPEG4/ISO/AVC
Duration                                 : 1 h 30 min
Bit rate                                 : 8 040 kb/s
Width                                    : 1 920 pixels
Height                                   : 800 pixels
Display aspect ratio                     : 2.40:1
Frame rate mode                          : Constant
Frame rate                               : 23.976 (24000/1001) FPS
Color space                              : YUV
Chroma subsampling                       : 4:2:0
Bit depth                                : 8 bits
Scan type                                : Progressive
Bits/(Pixel*Frame)                       : 0.218
Stream size                              : 4.95 GiB (91%)
Writing library                          : x264 core 148 r2665 a01e339
Encoding settings                        : cabac=1 / ref=5 / deblock=1:-3:-3 / analyse=0x3:0x113 / me=umh / subme=8 / psy=1 / psy_rd=1.00:0.00 / mixed_ref=1 / me_range=32 / chroma_me=1 / trellis=1 / 8x8dct=1 / cqm=0 / deadzone=21,11 / fast_pskip=1 / chroma_qp_offset=-2 / threads=24 / lookahead_threads=4 / sliced_threads=0 / nr=0 / decimate=1 / interlaced=0 / bluray_compat=0 / constrained_intra=0 / bframes=3 / b_pyramid=2 / b_adapt=2 / b_bias=0 / direct=3 / weightb=1 / open_gop=0 / weightp=2 / keyint=240 / keyint_min=24 / scenecut=40 / intra_refresh=0 / rc_lookahead=50 / rc=2pass / mbtree=1 / bitrate=8040 / ratetol=1.0 / qcomp=0.60 / qpmin=0 / qpmax=69 / qpstep=4 / cplxblur=20.0 / qblur=0.5 / ip_ratio=1.40 / aq=3:0.80
Language                                 : English
Default                                  : Yes
Forced                                   : No
Statistics Tags Issue                    : no_variable_data 1970-01-01 00:00:00 / no_variable_data 2010-02-22 21:41:29
FromStats_BitRate                        : 8035005
FromStats_Duration                       : 01:30:06.610000000
FromStats_FrameCount                     : 129629
FromStats_StreamSize                     : 5430267520

Audio
ID                                       : 2
Format                                   : AC-3
Format/Info                              : Audio Coding 3
Commercial name                          : Dolby Digital
Codec ID                                 : A_AC3
Duration                                 : 1 h 30 min
Bit rate mode                            : Constant
Bit rate                                 : 640 kb/s
Channel(s)                               : 6 channels
Channel layout                           : L R C LFE Ls Rs
Sampling rate                            : 48.0 kHz
Frame rate                               : 31.250 FPS (1536 SPF)
Bit depth                                : 16 bits
Compression mode                         : Lossy
Stream size                              : 412 MiB (7%)
Language                                 : English
Service kind                             : Complete Main
Default                                  : Yes
Forced                                   : No
Statistics Tags Issue                    : no_variable_data 1970-01-01 00:00:00 / no_variable_data 2010-02-22 21:41:29
FromStats_BitRate                        : 640000
FromStats_Duration                       : 01:30:06.432000000
FromStats_FrameCount                     : 168951
FromStats_StreamSize                     : 432514560

Text #1
ID                                       : 3
Format                                   : UTF-8
Codec ID                                 : S_TEXT/UTF8
Codec ID/Info                            : UTF-8 Plain Text
Language                                 : English
Default                                  : No
Forced                                   : No
Statistics Tags Issue                    : no_variable_data 1970-01-01 00:00:00 / no_variable_data 2010-02-22 21:41:29
FromStats_BitRate                        : 25
FromStats_Duration                       : 01:20:42.628000000
FromStats_FrameCount                     : 531
FromStats_StreamSize                     : 15253

Text #2
ID                                       : 4
Format                                   : UTF-8
Codec ID                                 : S_TEXT/UTF8
Codec ID/Info                            : UTF-8 Plain Text
Title                                    : SDH
Language                                 : English
Default                                  : No
Forced                                   : No
Statistics Tags Issue                    : no_variable_data 1970-01-01 00:00:00 / no_variable_data 2010-02-22 21:41:29
FromStats_BitRate                        : 30
FromStats_Duration                       : 01:22:35.283000000
FromStats_FrameCount                     : 677
FromStats_StreamSize                     : 18616

Menu
00:00:00.000                             : en:00:00:00.000
00:18:23.352                             : en:00:18:23.352
00:31:02.360                             : en:00:31:02.360
00:40:07.530                             : en:00:40:07.530
00:52:21.347                             : en:00:52:21.347
01:00:55.443                             : en:01:00:55.443
01:14:33.761                             : en:01:14:33.761
01:23:51.777                             : en:01:23:51.777



                                                                                                                                                                                                        
                                                                                                                                                                                                                                                                                                                                                                                                                                                                                                                                                                                                                                                                                                                                                                                                                                                        
3ef70c80fd0b70a0ecb5d5a38a7568ce.torrent (27.83 KB, 下载次数: 6)

回复

使用道具 举报

小黑屋|磁力链接吧 |网站地图

本网站所有资源来自网络,如无意中侵犯了您的权益,请发邮件至 [email protected],立即清除相关链接

GMT+8, 2020-2-28 20:03 , Processed in 0.167258 second(s), 23 queries .

Powered by Discuz! X3.2

© 2001-2013 Comsenz Inc.

快速回复 返回顶部 返回列表