磁力链接吧

 找回密码
 立即注册
搜索

纽约小匪战黑帮/抢劫暴徒 Rob.the.Mob.2014.LIMITED.1080p.BluRay.x264...

[复制链接]
百度云资源 发表于 2019-7-2 10:05:36 | 显示全部楼层 |阅读模式


帖子完整标题:纽约小匪战黑帮/抢劫暴徒 Rob.the.Mob.2014.LIMITED.1080p.BluRay.x264-GECKOS 6.55GB




◎译  名 纽约小匪战黑帮 / 抢劫暴徒
◎片  名 Rob the Mob
◎年  代 2014
◎产  地 美国
◎类  别 剧情 / 犯罪
◎语  言 英语
◎上映日期 2014-03-21(美国)
◎IMDb评分  6.3/10 from 10185 users
◎片  长 104分钟
◎导  演 雷蒙·狄·费利拉 Raymond De Felitta
◎编  剧 乔纳森·费尔南德斯 Jonathan Fernandez
◎主  演 迈克尔·皮特 Michael Pitt
      妮娜·阿里安达 Nina Arianda
      安迪·加西亚 Andy Garcia
      雷·罗马诺 Ray Romano
      格里芬·邓恩 Griffin Dunne
      迈克尔·瑞斯玻利 Michael Rispoli
      尤尔·瓦斯克斯 Yul Vazquez
      弗兰克·威利 Frank Whaley
      布赖恩·塔伦蒂诺 Brian Tarantina
      艾达·图多尔 Aida Turturro
      艾米·穆林斯 Aimee Mullins


◎标  签 犯罪 | 美国 | 剧情 | 2014 | 黑色幽默 | 黑帮 | 爱情 | 讽刺

◎简  介  

  纽约皇后区一对正在热恋中的年轻人抢劫了几个黑社会据点,就在得手的不长时间后预想不到的事情使得他们惊恐万分,他们成了黑社会和FBI的目标……
Video
ID                                       : 1
Format                                   : AVC
Format/Info                              : Advanced Video Codec
Format settings                          : CABAC / 4 Ref Frames
Format settings, CABAC                   : Yes
Format settings, ReFrames                : 4 frames
Codec ID                                 : V_MPEG4/ISO/AVC
Duration                                 : 1 h 44 min
Bit rate                                 : 8 366 kb/s
Width                                    : 1 920 pixels
Height                                   : 1 080 pixels
Display aspect ratio                     : 16:9
Frame rate mode                          : Constant
Frame rate                               : 23.976 FPS
Color space                              : YUV
Chroma subsampling                       : 4:2:0
Bit depth                                : 8 bits
Scan type                                : Progressive
Bits/(Pixel*Frame)                       : 0.168
Stream size                              : 5.96 GiB (91%)
Writing library                          : x264 core 142 r2431 ac76440
Encoding settings                        : cabac=1 / ref=4 / deblock=1:0:0 / analyse=0x3:0x133 / me=umh / subme=7 / psy=1 / psy_rd=1.00:0.00 / mixed_ref=1 / me_range=16 / chroma_me=1 / trellis=1 / 8x8dct=1 / cqm=0 / deadzone=21,11 / fast_pskip=0 / chroma_qp_offset=-2 / threads=18 / lookahead_threads=3 / sliced_threads=0 / nr=0 / decimate=1 / interlaced=0 / bluray_compat=0 / constrained_intra=0 / bframes=3 / b_pyramid=2 / b_adapt=1 / b_bias=0 / direct=1 / weightb=1 / open_gop=0 / weightp=2 / keyint=250 / keyint_min=23 / scenecut=40 / intra_refresh=0 / rc_lookahead=40 / rc=2pass / mbtree=1 / bitrate=8366 / ratetol=1.0 / qcomp=0.60 / qpmin=0 / qpmax=69 / qpstep=4 / cplxblur=20.0 / qblur=0.5 / ip_ratio=1.40 / aq=1:1.00
Language                                 : English
Default                                  : Yes
Forced                                   : No

Audio
ID                                       : 2
Format                                   : AC-3
Format/Info                              : Audio Coding 3
Commercial name                          : Dolby Digital
Codec ID                                 : A_AC3
Duration                                 : 1 h 44 min
Bit rate mode                            : Constant
Bit rate                                 : 640 kb/s
Channel(s)                               : 6 channels
Channel layout                           : L R C LFE Ls Rs
Sampling rate                            : 48.0 kHz
Frame rate                               : 31.250 FPS (1536 SPF)
Bit depth                                : 16 bits
Compression mode                         : Lossy
Stream size                              : 477 MiB (7%)
Language                                 : English
Service kind                             : Complete Main
Default                                  : Yes
Forced                                   : No

Menu
00:00:00.000                             : en:00:00:00.000
00:08:36.850                             : en:00:08:36.850
00:16:10.887                             : en:00:16:10.887
00:25:03.252                             : en:00:25:03.252
00:32:48.341                             : en:00:32:48.341
00:42:56.699                             : en:00:42:56.699
00:50:36.700                             : en:00:50:36.700
00:58:07.901                             : en:00:58:07.901
01:07:19.869                             : en:01:07:19.869
01:15:25.521                             : en:01:15:25.521
01:23:28.587                             : en:01:23:28.587
01:39:38.514                             : en:01:39:38.514



                                                                                                                                                                                                        
                                                                                                                                                                                                                                                                                                                                                                                                                                                                                                                                                                                                                                                                                                                                                                                                                                                        
1ca042c734d161577c1a88362b72b1e1.torrent (33.29 KB, 下载次数: 13)

回复

使用道具 举报

小黑屋|磁力链接吧 |网站地图

本网站所有资源来自网络,如无意中侵犯了您的权益,请发邮件至 [email protected],立即清除相关链接

GMT+8, 2020-2-25 01:49 , Processed in 0.071694 second(s), 23 queries .

Powered by Discuz! X3.2

© 2001-2013 Comsenz Inc.

快速回复 返回顶部 返回列表