百度云资源论坛

 找回密码
 立即注册
搜索

黑疯婆子的葬礼 A.Madea.Family.Funeral.2019.1080p.BluRay.x264.DTS-HD.MA...

[复制链接]
百度云资源 发表于 前天 15:55 | 显示全部楼层 |阅读模式
黑疯婆子的葬礼 A.Madea.Family.Funeral.2019.1080p.BluRay.x264.DTS-HD.MA.5.1-FGT 10.27GB




◎译  名 黑疯婆子的葬礼 / Tyler Perry's a Madea Family Funeral
◎片  名 A Madea Family Funeral
◎年  代 2019
◎产  地 美国
◎类  别 喜剧
◎语  言 英语
◎上映日期 2019-03-01(美国)
◎片  长 109分钟
◎导  演 泰勒·派瑞 Tyler Perry
◎编  剧 泰勒·派瑞 Tyler Perry
◎主  演 泰勒·派瑞 Tyler Perry
      凯西·戴维斯 Cassi Davis
      派翠丝·拉弗莉 Patrice Lovely
      迈克·泰森 Mike Tyson
      西雷拉·佩顿 Ciera Payton
      杰·史密斯 Kj Smith
      昆·沃尔特斯 Quin Walters
      艾里耶·米兰达 Aeriél Miranda
      韦米蒂娅·埃拉恩 Vermyttya Erahn
      詹·哈珀 Jen Harper
      罗姆·弗林 Rome Flynn
      大卫·奥唐家 David Otunga
      阿莱·卡特斯 Ary Katz
      乔尔·拉什 Joel Rush
      玛丽索尔·科雷亚 Marisol Correa
      大卫·邓斯顿 David Dunston
      雷纳·加拉赫 Renah Gallagher
      肖恩·麦克米伦 Shaun McMillan


◎标  签 剧情 | 美国 | 喜剧 | 2019 | 2010s | 大陆

◎简  介  

  “黑疯婆子”系列电影始于2005年,由美国黑人电影人泰勒·派瑞(Tyler Perry)打造。自《疯女人日记》(Diary of a Mad Black Woman)2005年2月上映以来,该系列于14年间推出《黑疯婆子的万圣节》(Boo! A Madea Halloween)、《黑疯婆子的快乐大家庭》(Madea's Big Happy Family)、《黑疯婆子闹监狱》(Madea Goes to Jail)等9部影片,展开一段又一段“黑疯婆子”疯狂搞笑之旅。
最新亮相的《黑疯婆子的家庭葬礼》,继续由今年50岁的泰勒·派瑞担纲编剧、导演和主演,讲述一场意想不到的葬礼引出家族秘密的滑稽故事。
Video
ID                                       : 1
Format                                   : AVC
Format/Info                              : Advanced Video Codec
Format settings                          : CABAC / 4 Ref Frames
Format settings, CABAC                   : Yes
Format settings, ReFrames                : 4 frames
Codec ID                                 : V_MPEG4/ISO/AVC
Duration                                 : 1 h 49 min
Bit rate                                 : 9 926 kb/s
Width                                    : 1 920 pixels
Height                                   : 1 040 pixels
Display aspect ratio                     : 1.85:1
Frame rate mode                          : Constant
Frame rate                               : 23.976 (24000/1001) FPS
Color space                              : YUV
Chroma subsampling                       : 4:2:0
Bit depth                                : 8 bits
Scan type                                : Progressive
Bits/(Pixel*Frame)                       : 0.207
Stream size                              : 7.59 GiB (74%)
Title                                    : A.Madea.Family.Funeral.2019.1080p.BluRay.x264.DTS-HD.MA.5.1-FGT
Writing library                          : x264 core 157 r2970 5493be8
Encoding settings                        : cabac=1 / ref=4 / deblock=1:-3:-3 / analyse=0x3:0x113 / me=umh / subme=8 / psy=1 / psy_rd=1.00:0.00 / mixed_ref=1 / me_range=16 / chroma_me=1 / trellis=1 / 8x8dct=1 / cqm=0 / deadzone=21,11 / fast_pskip=1 / chroma_qp_offset=-2 / threads=32 / lookahead_threads=5 / sliced_threads=0 / nr=0 / decimate=1 / interlaced=0 / bluray_compat=0 / constrained_intra=0 / bframes=3 / b_pyramid=2 / b_adapt=1 / b_bias=0 / direct=3 / weightb=1 / open_gop=0 / weightp=2 / keyint=250 / keyint_min=23 / scenecut=40 / intra_refresh=0 / rc_lookahead=50 / rc=2pass / mbtree=1 / bitrate=9926 / ratetol=1.0 / qcomp=0.60 / qpmin=0 / qpmax=69 / qpstep=4 / cplxblur=20.0 / qblur=0.5 / ip_ratio=1.40 / aq=1:1.00
Language                                 : English
Default                                  : Yes
Forced                                   : No

Audio
ID                                       : 2
Format                                   : DTS XLL
Format/Info                              : Digital Theater Systems
Commercial name                          : DTS-HD Master Audio
Codec ID                                 : A_DTS
Duration                                 : 1 h 49 min
Bit rate mode                            : Variable
Bit rate                                 : 3 430 kb/s
Channel(s)                               : 6 channels
Channel layout                           : C L R Ls Rs LFE
Sampling rate                            : 48.0 kHz
Frame rate                               : 93.750 FPS (512 SPF)
Bit depth                                : 24 bits
Compression mode                         : Lossless
Stream size                              : 2.62 GiB (26%)
Title                                    : A.Madea.Family.Funeral.2019.1080p.BluRay.x264.DTS-HD.MA.5.1-FGT
Language                                 : English
Default                                  : Yes
Forced                                   : No

Text #1
ID                                       : 3
Format                                   : UTF-8
Codec ID                                 : S_TEXT/UTF8
Codec ID/Info                            : UTF-8 Plain Text
Duration                                 : 1 h 44 min
Bit rate                                 : 116 b/s
Count of elements                        : 2571
Stream size                              : 88.8 KiB (0%)
Title                                    : English-SRT
Language                                 : English
Default                                  : Yes
Forced                                   : No

Text #2
ID                                       : 4
Format                                   : PGS
Muxing mode                              : zlib
Codec ID                                 : S_HDMV/PGS
Codec ID/Info                            : Picture based subtitle format used on BDs/HD-DVDs
Duration                                 : 1 h 44 min
Bit rate                                 : 85.4 kb/s
Count of elements                        : 5299
Stream size                              : 63.8 MiB (1%)
Title                                    : English-PGS
Language                                 : English
Default                                  : No
Forced                                   : No

Text #3
ID                                       : 5
Format                                   : PGS
Muxing mode                              : zlib
Codec ID                                 : S_HDMV/PGS
Codec ID/Info                            : Picture based subtitle format used on BDs/HD-DVDs
Duration                                 : 1 h 44 min
Bit rate                                 : 73.9 kb/s
Count of elements                        : 5046
Stream size                              : 55.2 MiB (1%)
Title                                    : Spanish-PGS
Language                                 : Spanish
Default                                  : No
Forced                                   : No

Menu
00:00:00.000                             : en:Chapter 01
00:04:58.506                             : en:Chapter 02
00:12:28.122                             : en:Chapter 03
00:21:00.759                             : en:Chapter 04
00:27:56.966                             : en:Chapter 05
00:31:41.733                             : en:Chapter 06
00:38:50.244                             : en:Chapter 07
00:45:35.941                             : en:Chapter 08
00:52:18.426                             : en:Chapter 09
00:57:36.119                             : en:Chapter 10
01:02:48.097                             : en:Chapter 11
01:08:37.488                             : en:Chapter 12
01:19:38.982                             : en:Chapter 13
01:32:58.698                             : en:Chapter 14
01:35:08.828                             : en:Chapter 15
01:42:07.412                             : en:Chapter 16



                                                                                                                                                                                                        
                                                                                                                                                                                                                                                                                                                                                                                                                                                                                                                                                                                                                                                                                                                                                                                                                                                        
cbe6479b54ff05d1d39fd452fbc380f3.torrent (51.91 KB, 下载次数: 3)

回复

使用道具 举报

小黑屋|百度云资源论坛 |网站地图

本网站所有资源来自网络,如无意中侵犯了您的权益,请发邮件至 [email protected],立即清除相关链接

GMT+8, 2019-6-16 16:37 , Processed in 0.055968 second(s), 23 queries .

Powered by Discuz! X3.2

© 2001-2013 Comsenz Inc.

快速回复 返回顶部 返回列表