磁力链接吧

 找回密码
 立即注册
搜索

海滩流浪汉/海滨狂欢 The.Beach.Bum.2019.1080p.BluRay.x264.DTS-HD.MA.5...

[复制链接]
百度云资源 发表于 2019-6-14 15:55:35 | 显示全部楼层 |阅读模式
海滩流浪汉/海滨狂欢 The.Beach.Bum.2019.1080p.BluRay.x264.DTS-HD.MA.5.1-FGT 9.19GB




◎译  名 海滩流浪汉 / 海滨狂欢
◎片  名 The Beach Bum
◎年  代 2019
◎产  地 瑞士 / 英国 / 法国 / 美国
◎类  别 喜剧
◎语  言 英语 / 西班牙语
◎上映日期 2019-03-09(西南偏南电影节) / 2019-03-29(美国)
◎导  演 哈莫尼·科林 Harmony Korine
◎编  剧 哈莫尼·科林 Harmony Korine
◎主  演 马修·麦康纳 Matthew McConaughey
      史努比狗狗 Snoop Dogg
      艾拉·菲舍尔 Isla Fisher
      斯蒂芬妮娅·欧文 Stefania Owen
      马丁·劳伦斯 Martin Lawrence
      扎克·埃夫隆 Zac Efron
      乔纳·希尔 Jonah Hill
      杰里·阿斯科恩 Jerry Ascione
      吉米·巴菲特 Jimmy Buffett
      贝蒂·希金斯 Bertie Higgins
      瑞奇·迪亚兹 Ricky Diaz
      罗布·古德曼 Rob Goodman
      乔玛丽·佩顿 JoMarie Payton
      尼古拉斯·西蒙斯 Nicholas Simmons


◎标  签 美国 | 2019 | 喜剧 | 英国 | cannes | 瑞士 | SXSW | 法国

◎简  介  

  艾拉·菲舍尔加盟新片[海滩上的屁股],将与马修·麦康纳上演对手戏。该片由哈莫尼·科林自编自导,发行权由Neon影业早些时候在戛纳电影市场购得。麦康纳在片中饰演了一个时而叛逆又时而可爱的混蛋,菲舍尔则饰演他的老婆。哈莫尼·科林别具个人特色的影片画风,从前作[春假]即可见一斑。
Video
ID                                       : 1
Format                                   : AVC
Format/Info                              : Advanced Video Codec
Format settings                          : CABAC / 5 Ref Frames
Format settings, CABAC                   : Yes
Format settings, ReFrames                : 5 frames
Codec ID                                 : V_MPEG4/ISO/AVC
Duration                                 : 1 h 34 min
Bit rate                                 : 10.1 Mb/s
Width                                    : 1 920 pixels
Height                                   : 808 pixels
Display aspect ratio                     : 2.40:1
Frame rate mode                          : Constant
Frame rate                               : 23.976 (24000/1001) FPS
Color space                              : YUV
Chroma subsampling                       : 4:2:0
Bit depth                                : 8 bits
Scan type                                : Progressive
Bits/(Pixel*Frame)                       : 0.270
Stream size                              : 6.65 GiB (72%)
Title                                    : The.Beach.Bum.2019.1080p.BluRay.x264.DTS-HD.MA.5.1-FGT
Writing library                          : x264 core 157 r2969 d4099dd
Encoding settings                        : cabac=1 / ref=5 / deblock=1:-3:-3 / analyse=0x3:0x133 / me=umh / subme=8 / psy=1 / psy_rd=1.00:0.00 / mixed_ref=1 / me_range=16 / chroma_me=1 / trellis=1 / 8x8dct=1 / cqm=0 / deadzone=21,11 / fast_pskip=0 / chroma_qp_offset=-2 / threads=25 / lookahead_threads=4 / sliced_threads=0 / nr=0 / decimate=1 / interlaced=0 / bluray_compat=0 / constrained_intra=0 / bframes=3 / b_pyramid=2 / b_adapt=1 / b_bias=0 / direct=3 / weightb=1 / open_gop=0 / weightp=2 / keyint=250 / keyint_min=23 / scenecut=40 / intra_refresh=0 / rc_lookahead=50 / rc=2pass / mbtree=1 / bitrate=10059 / ratetol=1.0 / qcomp=0.60 / qpmin=0 / qpmax=69 / qpstep=4 / cplxblur=20.0 / qblur=0.5 / vbv_maxrate=62500 / vbv_bufsize=78125 / nal_hrd=none / filler=0 / ip_ratio=1.40 / aq=1:1.00
Language                                 : English
Default                                  : Yes
Forced                                   : No

Audio
ID                                       : 2
Format                                   : DTS XLL
Format/Info                              : Digital Theater Systems
Commercial name                          : DTS-HD Master Audio
Codec ID                                 : A_DTS
Duration                                 : 1 h 34 min
Bit rate mode                            : Variable
Bit rate                                 : 3 812 kb/s
Channel(s)                               : 6 channels
Channel layout                           : C L R Ls Rs LFE
Sampling rate                            : 48.0 kHz
Frame rate                               : 93.750 FPS (512 SPF)
Bit depth                                : 24 bits
Compression mode                         : Lossless
Stream size                              : 2.52 GiB (27%)
Title                                    : The.Beach.Bum.2019.1080p.BluRay.x264.DTS-HD.MA.5.1-FGT
Language                                 : English
Default                                  : Yes
Forced                                   : No

Text #1
ID                                       : 3
Format                                   : UTF-8
Codec ID                                 : S_TEXT/UTF8
Codec ID/Info                            : UTF-8 Plain Text
Duration                                 : 1 h 31 min
Bit rate                                 : 84 b/s
Count of elements                        : 1751
Stream size                              : 56.8 KiB (0%)
Title                                    : English-SRT
Language                                 : English
Default                                  : Yes
Forced                                   : No

Text #2
ID                                       : 4
Format                                   : PGS
Muxing mode                              : zlib
Codec ID                                 : S_HDMV/PGS
Codec ID/Info                            : Picture based subtitle format used on BDs/HD-DVDs
Duration                                 : 1 h 33 min
Bit rate                                 : 44.4 kb/s
Count of elements                        : 3947
Stream size                              : 29.8 MiB (0%)
Title                                    : English-PGS
Language                                 : English
Default                                  : No
Forced                                   : No

Menu
00:00:00.000                             : en:Chapter 01
00:09:30.570                             : en:Chapter 02
00:21:07.224                             : en:Chapter 03
00:31:56.998                             : en:Chapter 04
00:40:55.870                             : en:Chapter 05
00:51:46.770                             : en:Chapter 06
01:07:11.027                             : en:Chapter 07
01:29:03.088                             : en:Chapter 08



                                                                                                                                                                                                        
                                                                                                                                                                                                                                                                                                                                                                                                                                                                                                                                                                                                                                                                                                                                                                                                                                                        
bb68abb9054f3fa4a13cd8f24112efc4.torrent (46.47 KB, 下载次数: 1)

回复

使用道具 举报

小黑屋|磁力链接吧 |网站地图

本网站所有资源来自网络,如无意中侵犯了您的权益,请发邮件至 [email protected],立即清除相关链接

GMT+8, 2019-9-24 08:31 , Processed in 0.131777 second(s), 23 queries .

Powered by Discuz! X3.2

© 2001-2013 Comsenz Inc.

快速回复 返回顶部 返回列表