百度云资源论坛

 找回密码
 立即注册
搜索

野马 The.Mustang.2019.1080p.BluRay.x264.DTS-HD.MA.5.1-FGT 9.06GB

[复制链接]
百度云资源 发表于 2019-6-14 15:55:35 | 显示全部楼层 |阅读模式
野马 The.Mustang.2019.1080p.BluRay.x264.DTS-HD.MA.5.1-FGT 9.06GB




◎译  名 野马
◎片  名 The Mustang
◎年  代 2019
◎产  地 法国 / 美国
◎类  别 剧情
◎语  言 英语
◎上映日期 2019-03-15(美国)
◎片  长 96分钟(圣丹斯电影节)
◎导  演 劳瑞·德·克莱蒙特-托奈尔 Laure de Clermont-Tonnerre
◎编  剧 劳瑞·德·克莱蒙特-托奈尔 Laure de Clermont-Tonnerre / Brock Norman Brock / 莫娜·法斯特欧德 Mona Fastvold
◎主  演 马提亚斯·修奈尔 Matthias Schoenaerts
      康妮·布里登 Connie Britton
      布鲁斯·邓恩 Bruce Dern
      乔什·斯图沃特 Josh Stewart
      吉第安·艾朵 Gideon Adlon
      杰森·米切尔 Jason Mitchell
      凯莉·理查德森 Kelly Richardson
      Santina Muha
      Jasmeet Baduwalia
      Heath Hensley


◎标  签 美国 | 2019 | 剧情 | 法国 | 真实事件 | 野马 | 马提亚斯·修奈尔 | 美国电影

◎简  介  

  法国导演Laure de Clermont-Tonnerre(《纯真曲》《追忆似水年华》)执导并同Mona Fastvold(《战前童年》《梦游者》)和Brock Norman Brock(《国境卫士》《布朗森》)编写剧本,已于内华达开拍。修奈尔饰演一名暴力罪犯Roman Coleman,得到了参与一项康复治疗程序的机会,其中包括训练野蛮的野马。斯图沃特饰演Coleman的狱友,萨兰登饰演监狱的治疗专家,艾朵饰演Coleman的女儿。
Video
ID                                       : 1
Format                                   : AVC
Format/Info                              : Advanced Video Codec
Format settings                          : CABAC / 4 Ref Frames
Format settings, CABAC                   : Yes
Format settings, ReFrames                : 4 frames
Codec ID                                 : V_MPEG4/ISO/AVC
Duration                                 : 1 h 36 min
Bit rate                                 : 9 873 kb/s
Width                                    : 1 808 pixels
Height                                   : 1 080 pixels
Display aspect ratio                     : 5:3
Frame rate mode                          : Constant
Frame rate                               : 23.976 (24000/1001) FPS
Color space                              : YUV
Chroma subsampling                       : 4:2:0
Bit depth                                : 8 bits
Scan type                                : Progressive
Bits/(Pixel*Frame)                       : 0.211
Stream size                              : 6.64 GiB (73%)
Title                                    : The.Mustang.2019.1080p.BluRay.x264.DTS-HD.MA.5.1-FGT
Writing library                          : x264 core 157 r2969 d4099dd
Encoding settings                        : cabac=1 / ref=4 / deblock=1:-3:-3 / analyse=0x3:0x133 / me=umh / subme=8 / psy=1 / psy_rd=1.00:0.00 / mixed_ref=1 / me_range=16 / chroma_me=1 / trellis=1 / 8x8dct=1 / cqm=0 / deadzone=21,11 / fast_pskip=0 / chroma_qp_offset=-2 / threads=30 / lookahead_threads=5 / sliced_threads=0 / nr=0 / decimate=1 / interlaced=0 / bluray_compat=0 / constrained_intra=0 / bframes=3 / b_pyramid=2 / b_adapt=1 / b_bias=0 / direct=3 / weightb=1 / open_gop=0 / weightp=2 / keyint=250 / keyint_min=23 / scenecut=40 / intra_refresh=0 / rc_lookahead=50 / rc=2pass / mbtree=1 / bitrate=9873 / ratetol=1.0 / qcomp=0.60 / qpmin=0 / qpmax=69 / qpstep=4 / cplxblur=20.0 / qblur=0.5 / vbv_maxrate=62500 / vbv_bufsize=78125 / nal_hrd=none / filler=0 / ip_ratio=1.40 / aq=1:1.00
Default                                  : Yes
Forced                                   : No

Audio
ID                                       : 2
Format                                   : DTS XLL
Format/Info                              : Digital Theater Systems
Commercial name                          : DTS-HD Master Audio
Codec ID                                 : A_DTS
Duration                                 : 1 h 36 min
Bit rate mode                            : Variable
Bit rate                                 : 3 585 kb/s
Channel(s)                               : 6 channels
Channel layout                           : C L R Ls Rs LFE
Sampling rate                            : 48.0 kHz
Frame rate                               : 93.750 FPS (512 SPF)
Bit depth                                : 24 bits
Compression mode                         : Lossless
Stream size                              : 2.41 GiB (27%)
Title                                    : The.Mustang.2019.1080p.BluRay.x264.DTS-HD.MA.5.1-FGT
Language                                 : English
Default                                  : Yes
Forced                                   : No

Text #1
ID                                       : 3
Format                                   : UTF-8
Codec ID                                 : S_TEXT/UTF8
Codec ID/Info                            : UTF-8 Plain Text
Duration                                 : 1 h 24 min
Bit rate                                 : 40 b/s
Count of elements                        : 811
Stream size                              : 25.1 KiB (0%)
Title                                    : English-SRT
Language                                 : English
Default                                  : Yes
Forced                                   : No

Text #2
ID                                       : 4
Format                                   : PGS
Muxing mode                              : zlib
Codec ID                                 : S_HDMV/PGS
Codec ID/Info                            : Picture based subtitle format used on BDs/HD-DVDs
Duration                                 : 1 h 29 min
Bit rate                                 : 31.9 kb/s
Count of elements                        : 2014
Stream size                              : 20.4 MiB (0%)
Title                                    : English-PGS
Language                                 : English
Default                                  : No
Forced                                   : No

Text #3
ID                                       : 5
Format                                   : PGS
Muxing mode                              : zlib
Codec ID                                 : S_HDMV/PGS
Codec ID/Info                            : Picture based subtitle format used on BDs/HD-DVDs
Duration                                 : 1 h 35 min
Bit rate                                 : 24.9 kb/s
Count of elements                        : 1944
Stream size                              : 17.1 MiB (0%)
Title                                    : Spanish-PGS
Language                                 : Spanish
Default                                  : No
Forced                                   : No

Text #4
ID                                       : 6
Format                                   : PGS
Muxing mode                              : zlib
Codec ID                                 : S_HDMV/PGS
Codec ID/Info                            : Picture based subtitle format used on BDs/HD-DVDs
Duration                                 : 1 h 35 min
Bit rate                                 : 20.5 kb/s
Count of elements                        : 1582
Stream size                              : 14.1 MiB (0%)
Title                                    : French-PGS
Language                                 : French
Default                                  : No
Forced                                   : No

Menu
00:00:00.000                             : en:Chapter 01
00:05:16.399                             : en:Chapter 02
00:09:23.062                             : en:Chapter 03
00:14:55.227                             : en:Chapter 04
00:18:54.842                             : en:Chapter 05
00:24:36.766                             : en:Chapter 06
00:28:44.431                             : en:Chapter 07
00:31:41.232                             : en:Chapter 08
00:36:22.096                             : en:Chapter 09
00:42:52.736                             : en:Chapter 10
00:47:03.153                             : en:Chapter 11
00:51:05.854                             : en:Chapter 12
00:56:38.395                             : en:Chapter 13
01:01:18.132                             : en:Chapter 14
01:06:50.631                             : en:Chapter 15
01:13:47.131                             : en:Chapter 16
01:17:55.087                             : en:Chapter 17
01:23:27.794                             : en:Chapter 18
01:28:40.315                             : en:Chapter 19
01:30:42.520                             : en:Chapter 20



                                                                                                                                                                                                        
                                                                                                                                                                                                                                                                                                                                                                                                                                                                                                                                                                                                                                                                                                                                                                                                                                                        
6b7188a920bf28c6aa97c058de40fb43.torrent (45.86 KB, 下载次数: 5)

回复

使用道具 举报

小黑屋|百度云资源论坛 |网站地图

本网站所有资源来自网络,如无意中侵犯了您的权益,请发邮件至 [email protected],立即清除相关链接

GMT+8, 2019-6-25 18:05 , Processed in 0.080856 second(s), 23 queries .

Powered by Discuz! X3.2

© 2001-2013 Comsenz Inc.

快速回复 返回顶部 返回列表