百度云资源论坛

 找回密码
 立即注册
搜索

包芬格计划/大制“骗”家 Bowfinger.1999.1080p.BluRay.X264-AMIABLE 7...

[复制链接]
百度云资源 发表于 2019-6-14 15:55:35 | 显示全部楼层 |阅读模式
包芬格计划/大制“骗”家 Bowfinger.1999.1080p.BluRay.X264-AMIABLE 7.94GB




◎译  名 包芬格计划 / 大制“骗”家 / 弄假成真
◎片  名 Bowfinger
◎年  代 1999
◎产  地 美国
◎类  别 喜剧
◎语  言 英语
◎上映日期 1999-08-13
◎片  长 97 分钟
◎导  演 Frank Oz
◎编  剧 Steve Martin
◎主  演 Steve Martin
      Eddie Murphy
      Heather Graham
      Christine Baranski
      Jamie Kennedy


◎标  签 喜剧 | 美国 | 搞笑 | 1999 | 美国电影 | 电影 | 励志 | Steve_Martin

◎简  介  

  包芬格(史蒂夫·马丁 Steve Martin 饰)做梦都想成为一名电影制片人,然而,依然生活在贫困之中的他显然离自己梦寐以求的好莱坞上流社会有着遥远的距离。可是,苍白的现实却并不能打击包芬格实现自己理想的热情,他得到了一个新的剧本,和朋友们夸下海口,将要邀请好莱坞著名的动作明星凯特(艾迪·墨菲 Eddie Murphy 饰)来做自己的男主角。
凯特当然毫不犹豫的拒绝了包芬格抛来的橄榄枝,因为后者能够支付给他的片酬实在是少得可怜。无奈之中,执着的包芬格和他的“摄制组”开始了漫长的偷拍计划。这一计划将凯特的生活搅得一团糟,与此同时,亦吸引了一些和包芬格一样疯狂的人。
Video
ID                                       : 1
Format                                   : AVC
Format/Info                              : Advanced Video Codec
Format settings                          : CABAC / 4 Ref Frames
Format settings, CABAC                   : Yes
Format settings, ReFrames                : 4 frames
Codec ID                                 : V_MPEG4/ISO/AVC
Duration                                 : 1 h 36 min
Bit rate                                 : 10.2 Mb/s
Width                                    : 1 920 pixels
Height                                   : 1 040 pixels
Display aspect ratio                     : 1.85:1
Frame rate mode                          : Constant
Frame rate                               : 23.976 (24000/1001) FPS
Color space                              : YUV
Chroma subsampling                       : 4:2:0
Bit depth                                : 8 bits
Scan type                                : Progressive
Bits/(Pixel*Frame)                       : 0.214
Stream size                              : 6.76 GiB (85%)
Writing library                          : x264 core 148 r2705 3f5ed56
Encoding settings                        : cabac=1 / ref=4 / deblock=1:-3:-3 / analyse=0x3:0x113 / me=umh / subme=8 / psy=1 / psy_rd=1.10:0.00 / mixed_ref=1 / me_range=16 / chroma_me=1 / trellis=1 / 8x8dct=1 / cqm=0 / deadzone=21,11 / fast_pskip=1 / chroma_qp_offset=-2 / threads=6 / lookahead_threads=1 / sliced_threads=0 / nr=0 / decimate=1 / interlaced=0 / bluray_compat=0 / constrained_intra=0 / bframes=3 / b_pyramid=2 / b_adapt=2 / b_bias=0 / direct=3 / weightb=1 / open_gop=0 / weightp=2 / keyint=240 / keyint_min=24 / scenecut=40 / intra_refresh=0 / rc_lookahead=50 / rc=2pass / mbtree=1 / bitrate=10234 / ratetol=1.0 / qcomp=0.60 / qpmin=0 / qpmax=69 / qpstep=4 / cplxblur=20.0 / qblur=0.5 / ip_ratio=1.40 / aq=3:0.80
Default                                  : Yes
Forced                                   : No
Statistics Tags Issue                    : no_variable_data 1970-01-01 00:00:00 / no_variable_data 2010-02-22 21:41:29
FromStats_BitRate                        : 10230052
FromStats_Duration                       : 01:36:49.637000000
FromStats_FrameCount                     : 139292
FromStats_StreamSize                     : 7429111130

Audio
ID                                       : 2
Format                                   : DTS
Format/Info                              : Digital Theater Systems
Codec ID                                 : A_DTS
Duration                                 : 1 h 36 min
Bit rate mode                            : Constant
Bit rate                                 : 1 509 kb/s
Channel(s)                               : 6 channels
Channel positions                        : Front: L C R, Side: L R, LFE
Sampling rate                            : 48.0 kHz
Frame rate                               : 93.750 FPS (512 SPF)
Bit depth                                : 24 bits
Compression mode                         : Lossy
Stream size                              : 1.02 GiB (13%)
Language                                 : English
Default                                  : Yes
Forced                                   : No
Statistics Tags Issue                    : no_variable_data 1970-01-01 00:00:00 / no_variable_data 2010-02-22 21:41:29
FromStats_BitRate                        : 1508999
FromStats_Duration                       : 01:36:49.643000000
FromStats_FrameCount                     : 544654
FromStats_StreamSize                     : 1095843848

Menu
00:00:00.000                             : en:00:00:00.000
00:05:43.760                             : en:00:05:43.760
00:12:33.252                             : en:00:12:33.252
00:23:04.925                             : en:00:23:04.925
00:29:15.087                             : en:00:29:15.087
00:37:09.060                             : en:00:37:09.060
00:46:13.062                             : en:00:46:13.062
00:56:53.619                             : en:00:56:53.619
01:05:11.157                             : en:01:05:11.157
01:12:13.788                             : en:01:12:13.788
01:20:57.352                             : en:01:20:57.352
01:29:48.717                             : en:01:29:48.717



                                                                                                                                                                                                        
                                                                                                                                                                                                                                                                                                                                                                                                                                                                                                                                                                                                                                                                                                                                                                                                                                                        
eb2a2ab74fa7dffdade319b0f83d495f.torrent (79.92 KB, 下载次数: 14)

回复

使用道具 举报

小黑屋|百度云资源论坛 |网站地图

本网站所有资源来自网络,如无意中侵犯了您的权益,请发邮件至 [email protected],立即清除相关链接

GMT+8, 2019-6-25 17:36 , Processed in 0.057352 second(s), 23 queries .

Powered by Discuz! X3.2

© 2001-2013 Comsenz Inc.

快速回复 返回顶部 返回列表