磁力链接吧

 找回密码
 立即注册
搜索

切尔诺贝利日记/切尔诺贝尔屠亡实录 Chernobyl.Diaries.2012.1080...

[复制链接]
百度云资源 发表于 2019-6-14 15:55:35 | 显示全部楼层 |阅读模式
切尔诺贝利日记/切尔诺贝尔屠亡实录 Chernobyl.Diaries.2012.1080p.BluRay.x264-SPARKS 6.55GB




◎译  名 切尔诺贝利日记 / 切尔诺贝尔屠亡实录(港) / 厄夜車諾比(台)
◎片  名 Chernobyl Diaries
◎年  代 2012
◎产  地 美国
◎类  别 恐怖
◎语  言 英语
◎上映日期 2012-05-24(美国)
◎片  长 88分钟
◎导  演 Bradley Parker
◎编  剧 Oren Peli / Carey Van Dyke / Shane Van Dyke
◎主  演 杰西·麦卡尼 Jesse McCartney
      乔纳森·萨多斯基 Jonathan Sadowski
      奥利维亚·达德利  Olivia Dudley
      Ingrid Bols? Berdal
      戴文·凯利 Devin Kelley


◎标  签 惊悚 | 恐怖 | 美国 | 异变 | 灾难 | 悬疑 | 科幻 | 历史

◎简  介  

  克里斯(杰西·麦卡尼 Jesse McCartney 饰)、娜塔莉(奥莉维娅·达德利 Olivia Dudley 饰)、阿曼达(蒂温·凯利 Devin Kelley 饰)等来自美国的青年男女正在进行一段快乐有趣的欧洲之旅,当他们抵达乌克兰时,经当地好友保罗(乔纳森·萨多 斯基 Jonathan Sadowski 饰)的介绍,他们和另外两名客人组团,跟随当地向导尤里(Dimitri Diatchenko 饰)展开了一段极限旅游。所谓极限旅游竟是走入在1986年因核泄漏事故而沦为鬼城的切尔诺贝利。寻求刺激的年轻人们一拍即合,携手踏入了这个至今仍为核辐射的乌云笼罩的废城。
当地颓败、死亡、神秘的氛围给了这群人前所未有的末世体验,可是他们同时发现,自己并非是这座死城中的唯一生物。随着夜幕降临,死神之手渐渐向这群胆大妄为的年轻人逼近……
Video
ID                                       : 1
Format                                   : AVC
Format/Info                              : Advanced Video Codec
Format settings, CABAC                   : Yes
Format settings, ReFrames                : 4 frames
Codec ID                                 : V_MPEG4/ISO/AVC
Duration                                 : 1 h 25 min
Bit rate                                 : 9 417 kb/s
Width                                    : 1 920 pixels
Height                                   : 1 080 pixels
Display aspect ratio                     : 16:9
Frame rate mode                          : Constant
Frame rate                               : 23.976 FPS
Color space                              : YUV
Chroma subsampling                       : 4:2:0
Bit depth                                : 8 bits
Scan type                                : Progressive
Bits/(Pixel*Frame)                       : 0.189
Stream size                              : 5.52 GiB (84%)
Writing library                          : x264 core 128 r2216 198a7ea
Encoding settings                        : cabac=1 / ref=4 / deblock=1:0:0 / analyse=0x3:0x133 / me=umh / subme=7 / psy=1 / psy_rd=1.00:0.00 / mixed_ref=1 / me_range=16 / chroma_me=1 / trellis=1 / 8x8dct=1 / cqm=0 / deadzone=21,11 / fast_pskip=0 / chroma_qp_offset=-2 / threads=12 / lookahead_threads=2 / sliced_threads=0 / nr=0 / decimate=1 / interlaced=0 / bluray_compat=0 / constrained_intra=0 / bframes=3 / b_pyramid=2 / b_adapt=1 / b_bias=0 / direct=1 / weightb=1 / open_gop=0 / weightp=2 / keyint=250 / keyint_min=23 / scenecut=40 / intra_refresh=0 / rc_lookahead=40 / rc=2pass / mbtree=1 / bitrate=9417 / ratetol=1.0 / qcomp=0.60 / qpmin=0 / qpmax=69 / qpstep=4 / cplxblur=20.0 / qblur=0.5 / ip_ratio=1.40 / aq=1:1.00
Language                                 : English
Default                                  : Yes
Forced                                   : No

Audio
ID                                       : 2
Format                                   : DTS
Format/Info                              : Digital Theater Systems
Mode                                     : 16
Format settings, Endianness              : Big
Codec ID                                 : A_DTS
Duration                                 : 1 h 25 min
Bit rate mode                            : Constant
Bit rate                                 : 1 509 kb/s
Channel(s)                               : 6 channels
Channel positions                        : Front: L C R, Side: L R, LFE
Sampling rate                            : 48.0 kHz
Frame rate                               : 93.750 FPS (512 spf)
Bit depth                                : 24 bits
Compression mode                         : Lossy
Stream size                              : 927 MiB (14%)
Language                                 : English
Default                                  : Yes
Forced                                   : No

Text
ID                                       : 3
Format                                   : UTF-8
Codec ID                                 : S_TEXT/UTF8
Codec ID/Info                            : UTF-8 Plain Text
Language                                 : English
Default                                  : No
Forced                                   : No

Menu
00:00:00.000                             : en:00:00:00.000
00:09:45.168                             : en:00:09:45.168
00:20:03.828                             : en:00:20:03.828
00:29:00.906                             : en:00:29:00.906
00:39:22.777                             : en:00:39:22.777
00:49:11.282                             : en:00:49:11.282
01:00:14.152                             : en:01:00:14.152
01:10:04.033                             : en:01:10:04.033
01:20:26.613                             : en:01:20:26.613



                                                                                                                                                                                                        
                                                                                                                                                                                                                                                                                                                                                                                                                                                                                                                                                                                                                                                                                                                                                                                                                                                        
225b394d144af2d4db70a4e7cc5b31f1.torrent (66.06 KB, 下载次数: 12)

回复

使用道具 举报

小黑屋|磁力链接吧 |网站地图

本网站所有资源来自网络,如无意中侵犯了您的权益,请发邮件至 [email protected],立即清除相关链接

GMT+8, 2019-9-24 08:57 , Processed in 0.168924 second(s), 23 queries .

Powered by Discuz! X3.2

© 2001-2013 Comsenz Inc.

快速回复 返回顶部 返回列表