磁力链接吧

 找回密码
 立即注册
搜索

饥饿/大绝食 Hunger.2008.PROPER.1080p.BluRay.x264-CiNEFiLE 7.95GB

[复制链接]
百度云资源 发表于 2019-6-14 15:55:35 | 显示全部楼层 |阅读模式
饥饿/大绝食 Hunger.2008.PROPER.1080p.BluRay.x264-CiNEFiLE 7.95GB




◎译  名 饥饿 / 大绝食(港) / 绝食 / 饥饿宣言(台)
◎片  名 Hunger
◎年  代 2008
◎产  地 英国 / 爱尔兰
◎类  别 剧情 / 传记
◎语  言 英语 / 爱尔兰语
◎上映日期 2008-05-15(戛纳电影节) / 2008-10-31(英国/爱尔兰)
◎片  长 96分钟
◎导  演 史蒂夫·麦奎因 Steve McQueen
◎编  剧 恩达·沃尔什 Enda Walsh / 史蒂夫·麦奎因 Steve McQueen
◎主  演 斯图尔特·格雷厄姆 Stuart Graham
      莱恩·梅加 Laine Megaw
      布赖恩·米利根 Brian Milligan
      利亚姆·麦克马洪 Liam McMahon
      凯伦·汉森 Karen Hassan
      迈克尔·法斯宾德 Michael Fassbender
      弗兰科·麦卡斯特 Frank McCusker
      莱勒·罗迪 Lalor Roddy
      海伦·麦登 Helen Madden
      德斯·麦卡莱尔 Des McAleer
      杰夫·盖特 Geoff Gatt
      罗里·马伦 Rory Mullen
      本·皮尔 Ben Peel
      海伦娜·布林 Helena Bereen
      帕蒂·杰金斯 Paddy Jenkins
      利亚姆·坎宁安 Liam Cunningham


◎标  签 英国 | 爱尔兰 | 政治 | 传记 | 剧情 | 2008 | 监狱 | 人性

◎简  介  

  北爱共和军领导人鲍比?桑兹(迈克尔?法斯宾德 Michael Fassbender 饰)因为领导反对当局的游行而被捕。在梅兹监狱中,他依然没有放弃斗争。监狱里都是六平方米的封闭牢房,这里关押着北爱共和军的囚犯,他们赤身裸体拒绝穿囚衣,以此对抗撒切尔夫人剥夺囚犯权利的法令。他们用污浊的食物和排泄物掩盖着变形门下的沟渠,以此传递消息。
通过一台蒙混过关的收音机,囚犯们得以及时了解共和军与英国政府斗争的消息。最后,在桑兹决定以绝食抗争的时候,他与神父多米尼克?莫朗(利亚姆?坎宁安 Liam Cunningham 饰)有过一场精彩的辩论,然而结果却于事无补……
本片获得第61届戛纳电影节金摄影机奖。

◎获奖情况  

  第61届戛纳电影节(2008)
  金摄影机奖(导演处女作奖) 史蒂夫·麦奎因
  一种关注单元 一种关注大奖(提名) 史蒂夫·麦奎因

  第65届威尼斯电影节(2008)
  古驰奖 史蒂夫·麦奎因

  第21届欧洲电影奖(2008)
  最佳导演(提名) 史蒂夫·麦奎因
  最佳男主角(提名) 迈克尔·法斯宾德
  年度发现奖 史蒂夫·麦奎因

  第75届纽约影评人协会奖(2009)
  最佳处女作 史蒂夫·麦奎因


Video
ID                                       : 1
Format                                   : AVC
Format/Info                              : Advanced Video Codec
Format settings, CABAC                   : Yes
Format settings, ReFrames                : 4 frames
Codec ID                                 : V_MPEG4/ISO/AVC
Duration                                 : 1h 36mn
Bit rate                                 : 10.3 Mbps
Width                                    : 1 920 pixels
Height                                   : 808 pixels
Display aspect ratio                     : 2.40:1
Frame rate mode                          : Constant
Frame rate                               : 23.976 fps
Color space                              : YUV
Chroma subsampling                       : 4:2:0
Bit depth                                : 8 bits
Scan type                                : Progressive
Bits/(Pixel*Frame)                       : 0.277
Stream size                              : 6.77 GiB (85%)
Writing library                          : x264 core 83 r1400 20fa784
Encoding settings                        : cabac=1 / ref=5 / deblock=1:0:0 / analyse=0x3:0x133 / me=umh / subme=7 / psy=1 / psy_rd=1.0:0.0 / mixed_ref=1 / me_range=16 / chroma_me=1 / trellis=1 / 8x8dct=1 / cqm=0 / deadzone=21,11 / fast_pskip=0 / chroma_qp_offset=-2 / threads=6 / sliced_threads=0 / nr=0 / decimate=1 / mbaff=0 / constrained_intra=0 / bframes=3 / b_pyramid=1 / b_adapt=1 / b_bias=0 / direct=1 / wpredb=1 / wpredp=2 / keyint=250 / keyint_min=25 / scenecut=40 / intra_refresh=0 / rc_lookahead=40 / rc=2pass / mbtree=1 / bitrate=10312 / ratetol=1.0 / qcomp=0.60 / qpmin=10 / qpmax=51 / qpstep=4 / cplxblur=20.0 / qblur=0.5 / ip_ratio=1.40 / aq=1:1.00
Language                                 : English
Default                                  : Yes
Forced                                   : No

Audio
ID                                       : 2
Format                                   : DTS
Format/Info                              : Digital Theater Systems
Mode                                     : 16
Format settings, Endianness              : Big
Codec ID                                 : A_DTS
Duration                                 : 1h 36mn
Bit rate mode                            : Constant
Bit rate                                 : 1 509 Kbps
Channel(s)                               : 6 channels
Channel positions                        : Front: L C R, Side: L R, LFE
Sampling rate                            : 48.0 KHz
Bit depth                                : 24 bits
Compression mode                         : Lossy
Stream size                              : 1.01 GiB (13%)
Language                                 : English
Default                                  : Yes
Forced                                   : No

Text
ID                                       : 3
Format                                   : UTF-8
Codec ID                                 : S_TEXT/UTF8
Codec ID/Info                            : UTF-8 Plain Text
Language                                 : English
Default                                  : No
Forced                                   : No



                                                                                                                                                                                                        
                                                                                                                                                                                                                                                                                                                                                                                                                                                                                                                                                                                                                                                                                                                                                                                                                                                        
acfca0dd243eac16a507b3895a36bc1a.torrent (80.16 KB, 下载次数: 2)

回复

使用道具 举报

小黑屋|磁力链接吧 |网站地图

本网站所有资源来自网络,如无意中侵犯了您的权益,请发邮件至 [email protected],立即清除相关链接

GMT+8, 2019-9-24 09:08 , Processed in 0.152520 second(s), 23 queries .

Powered by Discuz! X3.2

© 2001-2013 Comsenz Inc.

快速回复 返回顶部 返回列表