百度云资源论坛

 找回密码
 立即注册
搜索

志明與春嬌 Love.In.A.Puff.2010.1080p.BluRay.x264-SSF 7.95GB

[复制链接]
百度云资源 发表于 前天 15:55 | 显示全部楼层 |阅读模式
志明與春嬌 Love.In.A.Puff.2010.1080p.BluRay.x264-SSF 7.95GB




◎译  名 志明与春娇 / Love in a Puff / 谈恋爱
◎片  名 志明與春嬌
◎年  代 2010
◎产  地 香港
◎类  别 剧情 / 喜剧 / 爱情
◎语  言 粤语
◎上映日期 2010-03-25(香港) / 2010-06-18(中国大陆)
◎片  长 104分钟(香港)
◎导  演 彭浩翔 Ho-Cheung Pang
◎编  剧 麦曦茵 Heiward Mak / 彭浩翔 Ho-Cheung Pang
◎主  演 杨千嬅 Miriam Yeung
      余文乐 Shawn Yue
      黄德斌 Tak-bun Wong
      陈逸宁 Yat Ning Chan
      谷祖琳 Jo Kuk
      司徒慧焯 Roy Szeto
      谷德昭 Vincent Kok
      张达明 Cheung Tat-Ming
      方皓玟 Charmaine Fong
      林兆霞 June Lam
      关逸基 Clifton Kwan
      林耀声 Yiu-Sing Lam
      缪非临 Fei-Lam Miu
      辛格·哈提汗·比托 Singh Hartihan Bitto
      陆诗韵 Sharon Luk
      徐天佑 Tien You Chui
      邹凯光 Matt Chow
      王宗尧 Gregory Wong
      朱慧敏 Queenie Chu
      刘伟恒 Wai-Hang Lau
      筱靖 Manecy Chen
      骆应钧 Ying Kwan Lok


◎标  签 香港 | 爱情 | 文艺 | 都市 | 黑色幽默 | 喜剧 | 生活 | 2010

◎简  介  

  一纸戒烟令让狭窄的后巷成为新型社交区域,无数抽数的男男女女不得不躲进那里抽烟。无论身居何位,所为何事,在那里他们都只是一个烟民,大家所做的无非是一起吞云吐雾、一起科插打诨。来自广告公司的志明(余文乐 饰)和在化妆品专柜工作的春娇(杨千嬅 饰)在那里相识,志明的不幸遭遇以及为春娇点烟的举动让春娇对这个斯文的男人略生好感。在接下来的几个日日夜夜,两人不时的传送短信和相约街角吸烟。感情通过拇指传送,爱情在烟雾之中滋生,最终一条暧昧的短信导致春娇和男友家豪(黄德斌 饰)分手。就当春娇准备全身心投入与志明的恋情时,志明的态度却变得含混不清。烟雾继续在街角后巷萦绕,但却不能弥合二人之间出现的隔阂。伴随着增加烟草税的决意颁发,广大烟民们开始搜寻和囤积香烟。在寻烟过程中,志明和春娇在他们第一次遇见的便利商店重逢,这晚,两人相约一起去找烟……
本片在五个星期15个拍摄日便完成拍摄,拍摄时间相当短。由于粗口写实镜头过火,《志明和春娇》在香港上映时被定为三级片。

◎获奖情况  

  第47届台北金马影展(2010)
  金马奖 最佳造型设计(提名) 钟楚婷 / 文念中

  第30届香港电影金像奖(2011)
  最佳编剧 麦曦茵 / 彭浩翔
  最佳女主角(提名) 杨千嬅

  第5届亚洲电影大奖(2011)
  最佳编剧(提名) 麦曦茵 / 彭浩翔

  第11届华语电影传媒大奖(2011)
  观众票选最受瞩目女演员 杨千嬅
  最佳电影(提名)
  最佳导演(提名) 彭浩翔
  最佳编剧(提名) 麦曦茵 / 彭浩翔

  第1届豆瓣电影鑫像奖(2011)
  鑫豆单元 最佳女演员(华语) 杨千嬅


Video
ID                                       : 1
Format                                   : AVC
Format/Info                              : Advanced Video Codec

Format settings                          : CABAC / 5 Ref Frames
Format settings, CABAC                   : Yes
Format settings, ReFrames                : 5 frames
Codec ID                                 : V_MPEG4/ISO/AVC
Duration                                 : 1 h 42 min
Bit rate                                 : 9 557 kb/s
Width                                    : 1 920 pixels
Height                                   : 816 pixels
Display aspect ratio                     : 2.35:1
Frame rate mode                          : Constant
Frame rate                               : 24.000 FPS
Color space                              : YUV
Chroma subsampling                       : 4:2:0
Bit depth                                : 8 bits
Scan type                                : Progressive
Bits/(Pixel*Frame)                       : 0.254
Stream size                              : 6.71 GiB (84%)
Writing library                          : x264 core 100 r1659 57b2e56
Encoding settings                        : cabac=1 / ref=5 / deblock=1:0:0 / analyse=0x3:0x133 / me=umh / subme=7 / psy=1 / psy_rd=1.00:0.15 / mixed_ref=1 / me_range=16 / chroma_me=1 / trellis=1 / 8x8dct=1 / cqm=0 / deadzone=21,11 / fast_pskip=0 / chroma_qp_offset=-3 / threads=12 / sliced_threads=0 / nr=0 / decimate=0 / interlaced=0 / constrained_intra=0 / bframes=3 / b_pyramid=2 / b_adapt=1 / b_bias=0 / direct=1 / weightb=1 / open_gop=0 / weightp=2 / keyint=250 / keyint_min=25 / scenecut=40 / intra_refresh=0 / rc_lookahead=40 / rc=2pass / mbtree=1 / bitrate=9557 / ratetol=1.0 / qcomp=0.60 / qpmin=10 / qpmax=51 / qpstep=4 / cplxblur=20.0 / qblur=0.5 / ip_ratio=1.40 / aq=2:1.00
Language                                 : English
Default                                  : No
Forced                                   : No

Audio
ID                                       : 2
Format                                   : DTS
Format/Info                              : Digital Theater Systems
Codec ID                                 : A_DTS
Duration                                 : 1 h 42 min
Bit rate mode                            : Constant
Bit rate                                 : 1 509 kb/s
Channel(s)                               : 6 channels
Channel layout                           : C L R Ls Rs LFE
Sampling rate                            : 48.0 kHz
Frame rate                               : 93.750 FPS (512 SPF)
Bit depth                                : 16 bits
Compression mode                         : Lossy
Stream size                              : 1.08 GiB (14%)
Language                                 : Chinese
Default                                  : Yes
Forced                                   : No

Text
ID                                       : 3
Format                                   : UTF-8
Codec ID                                 : S_TEXT/UTF8
Codec ID/Info                            : UTF-8 Plain Text
Language                                 : English
Default                                  : Yes
Forced                                   : No



                                                                                                                                                                                                        
                                                                                                                                                                                                                                                                                                                                                                                                                                                                                                                                                                                                                                                                                                                                                                                                                                                        
c43f42b5ab6e06d74aebc6ca7cd13d6e.torrent (40.22 KB, 下载次数: 6)

回复

使用道具 举报

小黑屋|百度云资源论坛 |网站地图

本网站所有资源来自网络,如无意中侵犯了您的权益,请发邮件至 [email protected],立即清除相关链接

GMT+8, 2019-6-16 16:41 , Processed in 0.062371 second(s), 23 queries .

Powered by Discuz! X3.2

© 2001-2013 Comsenz Inc.

快速回复 返回顶部 返回列表