磁力链接吧

 找回密码
 立即注册
搜索

[剧情片] [BT下载]杀破狼·贪狼[国粤中字]Paradox.2017.1080p.BluRay.x264.TrueHD5.1-CHD 10GB ...

[复制链接]
电影首发 发表于 2017-12-15 09:42:00 | 显示全部楼层 |阅读模式

译  名 杀破狼·贪狼/Paradox
片  名 殺破狼‧貪狼
年  代 2017
产  地 香港/中国大陆
类  别 剧情/动作
语  言 粤语
上映日期 2017-08-17(中国大陆)/2017-08-25(香港)
片  长 101分钟
导  演 叶伟信 Wilson Yip
主  演 古天乐 Louis Koo
      吴樾 Yue Wu
      托尼·贾 Tony Jaa
      林家栋 Ka Tung Lam
      克里斯·柯林斯 Chris Collins
      郑雪儿 Michelle Saram
      卢惠光 Ken Lo
      蔡洁 Jacky Cai
      陈汉娜 Hanna Chan
      维他亚·潘斯林加姆 Vithaya Pansringarm
      Sompob Benjathikul
      Siraphan Wattanajinda


简  介


  香港警察李忠志(古天乐 饰)得知女儿芝(陈汉娜 饰)于泰国旅游间莫名失踪,即亲赴泰国报警求助。负责案件的华人探员崔杰(吴樾 饰),应允让他一同调查,却想不到李忠志利用媒体呼吁市民提供线索。 一条意外拍下芝被捉走的片段上载至警方网站,却被神秘删除。崔杰即连同好友兼同袍Tak(托尼·贾 饰)同赴寻找片主,却遇神秘人马截足灭证,狭路相逢,展开追截并与之搏斗。李忠志与崔杰两人逐步调查,却发现案中有案,并开始意识凶手背后神秘势力非他们能对付……


Video
ID                                       : 1
Format                                   : AVC
Format/Info                              : Advanced Video Codec
Format profile                           : [email protected]
Format settings                          : CABAC / 4 Ref Frames
Format settings, CABAC                   : Yes
Format settings, ReFrames                : 4 frames
Codec ID                                 : V_MPEG4/ISO/AVC
Duration                                 : 1 h 39 min
Bit rate                                 : 9 000 kb/s
Width                                    : 1 920 pixels
Height                                   : 816 pixels
Display aspect ratio                     : 2.35:1
Frame rate mode                          : Constant
Frame rate                               : 24.000 FPS
Color space                              : YUV
Chroma subsampling                       : 4:2:0
Bit depth                                : 8 bits
Scan type                                : Progressive
Bits/(Pixel*Frame)                       : 0.239
Stream size                              : 6.25 GiB (62%)
Writing library                          : x264 core 149 r2771+45 509cceb 7mod [[email protected] X86_64]
Encoding settings                        : cabac=1 / ref=4 / deblock=1:-1:-1 / analyse=0x3:0x133 / me=umh / subme=11 / psy=1 / fade_compensate=0.00 / psy_rd=0.95:0.10 / mixed_ref=1 / me_range=48 / chroma_me=1 / trellis=2 / 8x8dct=1 / cqm=0 / deadzone=21,11 / fast_pskip=0 / chroma_qp_offset=-4 / threads=12 / lookahead_threads=2 / sliced_threads=0 / nr=0 / decimate=1 / interlaced=0 / bluray_compat=0 / constrained_intra=0 / fgo=0 / bframes=8 / b_pyramid=2 / b_adapt=2 / b_bias=0 / direct=3 / weightb=1 / open_gop=0 / weightp=2 / keyint=250 / keyint_min=24 / scenecut=40 / intra_refresh=0 / rc_lookahead=30 / rc=2pass / mbtree=0 / bitrate=9000 / ratetol=1.0 / qcomp=0.70 / qpmin=0:0:0 / qpmax=69:69:69 / qpstep=4 / cplxblur=20.0 / qblur=0.5 / vbv_maxrate=35000 / vbv_bufsize=35000 / nal_hrd=none / filler=0 / ip_ratio=1.40 / pb_ratio=1.30 / aq=3:1.00 / aq-sensitivity=10.00 / aq-factor=1.00:1.00:1.00 / aq2=0 / aq3=2:[0.50:0.50]:[0.50:0.50]:[0.50:0.50]:[0.50:0.50] / aq3-sensitivity=10.00 / aq3-factor=[1.00:1.00]:[1.00:1.00]:[1.00:1.00] / aq3-boundary=192:64:24
Language                                 : Chinese
Default                                  : Yes
Forced                                   : No

Audio #1
ID                                       : 2
Format                                   : TrueHD
Codec ID                                 : A_TRUEHD
Duration                                 : 1 h 39 min
Bit rate mode                            : Variable
Bit rate                                 : 2 733 kb/s
Maximum bit rate                         : 4 764 kb/s
Channel(s)                               : 6 channels
Channel positions                        : Front: L C R, Side: L R, LFE
Sampling rate                            : 96.0 kHz
Frame rate                               : 2 400.000 FPS (40 SPF)
Compression mode                         : Lossless
Delay relative to video                  : 2 s 0 ms
Stream size                              : 1.90 GiB (19%)
Language                                 : Chinese
Default                                  : Yes
Forced                                   : No

Audio #2
ID                                       : 3
Format                                   : TrueHD
Codec ID                                 : A_TRUEHD
Duration                                 : 1 h 39 min
Bit rate mode                            : Variable
Bit rate                                 : 2 730 kb/s
Maximum bit rate                         : 4 764 kb/s
Channel(s)                               : 6 channels
Channel positions                        : Front: L C R, Side: L R, LFE
Sampling rate                            : 96.0 kHz
Frame rate                               : 2 400.000 FPS (40 SPF)
Compression mode                         : Lossless
Delay relative to video                  : 2 s 0 ms
Stream size                              : 1.90 GiB (19%)
Language                                 : Chinese
Default                                  : No
Forced                                   : No

Text
ID                                       : 4
Format                                   : PGS
Muxing mode                              : zlib
Codec ID                                 : S_HDMV/PGS
Codec ID/Info                            : Picture based subtitle format used on BDs/HD-DVDs
Duration                                 : 1 h 33 min
Bit rate                                 : 6 939 b/s
Count of elements                        : 1308
Stream size                              : 4.63 MiB (0%)
Language                                 : Chinese
Default                                  : Yes
Forced                                   : No

Menu
00:00:00.000                             : en:00:00:00.000
00:05:33.792                             : en:00:05:33.792
00:08:15.833                             : en:00:08:15.833
00:15:38.125                             : en:00:15:38.125
00:21:02.625                             : en:00:21:02.625
00:26:10.583                             : en:00:26:10.583
00:31:39.500                             : en:00:31:39.500
00:34:52.667                             : en:00:34:52.667
00:39:21.458                             : en:00:39:21.458
00:42:39.708                             : en:00:42:39.708
00:49:57.542                             : en:00:49:57.542
00:57:54.667                             : en:00:57:54.667
01:01:49.042                             : en:01:01:49.042
01:05:26.417                             : en:01:05:26.417
01:07:53.583                             : en:01:07:53.583
01:16:10.250                             : en:01:16:10.250
01:21:17.417                             : en:01:21:17.417
01:25:44.417                             : en:01:25:44.417
01:30:39.042                             : en:01:30:39.042
01:36:37.208                             : en:01:36:37.208







Paradox.2017.1080p.BluRay.x264.TrueHD5.1-CHD[bt天堂 www.btbt4.com].torrent (51.28 KB, 下载次数: 531)

回复

使用道具 举报

小黑屋|磁力链接吧 |网站地图

本网站所有资源来自网络,如无意中侵犯了您的权益,请发邮件至 [email protected],立即清除相关链接

GMT+8, 2019-8-19 04:23 , Processed in 0.109707 second(s), 23 queries .

Powered by Discuz! X3.2

© 2001-2013 Comsenz Inc.

快速回复 返回顶部 返回列表